img image001 image001 image001 image001 image001 image001 image001 image001 image001 image001 image001 image001 image001 image001 image001

Planets Sun Sun Sun
Статистика раздачи
Автор: PriZraK | Размер: 743.72 МБ | Добавлен: 15 фев 2014
Раздают: 91    Качают: 13
Скачать торрент
Скачать торрент
Описание торрента

СообщениеДобавлено: 15 фев 2014 


#77
Страна: СССР
Производство: ТО Экран
Жанр: комедия
Год выпуска: 1974
Продолжительность: 01:12:16

Перевод: не требуется
Оригинальная аудиодорожка: русский
Cубтитры: нет

Режиссер: Александр Белинский

В ролях:
Николай Трофимов, Галина Федотова, Нонна Мордюкова, Леонид Куравлев, Олег Табаков, Михаил Козаков, Андрей Миронов, Петр Щербаков, Роман Ткачук, Алла Ларионова, Георгий Георгиу, Георгий Тусузов, Илья Рутберг...

Описание:
Старый актер мечтает о главной роли для своей юной талантливой дочери. Однако ей противостоит могущественная примадонна труппы с ужасным характером и большими связями. После ряда усилий героев и веселых недоразумений мечта старика сбывается...





Исходник: DVD5 R5
Тип релиза: DVDRip-AVC
Контейнер: MKV

Видео: 696->736x552 (4:3), 25 fps, H264 ~ 1245 kbps avg, 0.130 bit/pixel
Аудио: 48 kHz, Dolby AC3 2.0, 192 kbps
Общее
Полное имя : Lev.Gurych.Sinichkin.1974.DVDRip-AVC_[Youtracker]_by_AVP Studio.mkv
Формат : Matroska
Версия формата : Version 2
Размер файла : 744 Мбайт
Продолжительность : 1 ч. 12 м.
Общий поток : 1439 Кбит/сек
Дата кодирования : UTC 2013-09-21 17:02:47
Программа кодирования : mkvmerge v6.1.0 ('Old Devil') built on Mar 4 2013 09:10:42
Библиотека кодирования : libebml v1.3.0 + libmatroska v1.4.0

Видео
Идентификатор : 1
Формат : AVC
Формат/Информация : Advanced Video Codec
Профиль формата : High@L4.1
Параметр CABAC формата : Да
Параметр ReFrames формата : 11 кадров
Идентификатор кодека : V_MPEG4/ISO/AVC
Продолжительность : 1 ч. 12 м.
Битрейт : 1245 Кбит/сек
Ширина : 696 пикселей
Высота : 552 пикселя
Соотношение сторон : 4:3
Частота кадров : 25,000 кадров/сек
Цветовое пространство : YUV
Субдискретизация насыщенности : 4:2:0
Битовая глубина : 8 бит
Тип развёртки : Прогрессивная
Бит/(Пиксели*Кадры) : 0.130
Размер потока : 630 Мбайт (85%)
Библиотека кодирования : x264 core 138 r2356 a1d3d17
Настройки программы : cabac=1 / ref=11 / deblock=1:-2:-1 / analyse=0x3:0x113 / me=umh / subme=9 / psy=1 / psy_rd=1.00:0.15 / mixed_ref=1 / me_range=32 / chroma_me=1 / trellis=1 / 8x8dct=1 / cqm=0 / deadzone=21,11 / fast_pskip=0 / chroma_qp_offset=-3 / threads=3 / lookahead_threads=1 / sliced_threads=0 / nr=0 / decimate=0 / interlaced=0 / bluray_compat=0 / constrained_intra=0 / bframes=8 / b_pyramid=2 / b_adapt=2 / b_bias=0 / direct=3 / weightb=1 / open_gop=0 / weightp=2 / keyint=250 / keyint_min=25 / scenecut=40 / intra_refresh=0 / rc_lookahead=60 / rc=2pass / mbtree=1 / bitrate=1245 / ratetol=1.0 / qcomp=0.60 / qpmin=0 / qpmax=69 / qpstep=4 / cplxblur=20.0 / qblur=0.5 / ip_ratio=1.40 / aq=1:1.00
Default : Да
Forced : Нет

Аудио
Идентификатор : 2
Формат : AC-3
Формат/Информация : Audio Coding 3
Расширение режима : CM (complete main)
Идентификатор кодека : A_AC3
Продолжительность : 1 ч. 12 м.
Вид битрейта : Постоянный
Битрейт : 192 Кбит/сек
Каналы : 2 канала
Расположение каналов : Front: L R
Частота : 48,0 КГц
Битовая глубина : 16 бит
Метод сжатия : С потерями
Размер потока : 99,3 Мбайт (13%)
Default : Да
Forced : Нет





   Похожие торренты   Торрент   Размер 
В этой теме нет новых непрочитанных сообщений. Лев Гурыч Синичкин (1974) DVDRip от New-Team

35 | 6

1.45 ГБ

В этой теме нет новых непрочитанных сообщений. Лев Гурыч Синичкин (1974) DVD5

4 | 3

4.11 ГБ

В этой теме нет новых непрочитанных сообщений. Предельно личные отношения: Песня любви 1974 года / Gokushiteki Erosu: Renka 1974 (1974) DVDRip | Sub

37 | 118

1.07 ГБ

В этой теме нет новых непрочитанных сообщений. Он начинает сердиться, или Горчица бьет в нос / La Moutarde me monte au nez (1974) DVDRip от New-Team

40 | 8

1.46 ГБ

В этой теме нет новых непрочитанных сообщений. Он начинает сердиться, или Горчица бьет в нос / La Moutarde me monte au nez (1974) DVDRip-AVC от New-Team

26 | 8

1.46 ГБ

В этой теме нет новых непрочитанных сообщений. Он начинает сердиться, или Горчица бьет в нос / La Moutarde me monte au nez (1974) DVDRip от New-Team

110 | 12

744.05 МБ

В этой теме нет новых непрочитанных сообщений. Помни имя свое (1974) DVD5 от New-Team | Лицензия

25 | 14

4.02 ГБ




Вы не можете начинать темы
Вы не можете отвечать на сообщения
Вы не можете редактировать свои сообщения
Вы не можете удалять свои сообщения
Вы не можете добавлять вложения

Перейти:  
Для Мосгорсуда, Роскомнадзора и рекламодателей: mosgorsud-torrent[собачка]yandex.ru
 Вход
ppkBB3cker v.2 © 2008-2014 @ PPK
[ Time : 0.025s | 14 Queries | GZIP : On ]

Торрент трекер RUTOR.IN, Не можете зайти на rutor.org? Какой новый адрес рутор? Какое зеркало рутор? Не работает rutor.org и зеркала? Тогда наш торрент специально для вас. Rutor.in неофициальное зеркало rutor. В случае если у Вас заблокирован rutor или вдруг Вы не можете на него зайти, то Вы без труда сможете скачать бесплатно и без рекламы последние новинки кино, игр, сериалов и прочего у нас, на Rutor.in. Не нужно использовать прокси, чтобы зайти на рутор, достаточно воспользоваться нашим ресурсом. Все новые фильмы, игры, сериалы, книги и музыка за 2013 и 2014 годы через торрент бесплатно. Скачивайте фильмы в хорошем качестве, игры для пк, xbox, playstation без регистрации. У нас вы найдете новые Зарубежные сериалы и Русские сериалы 2013, 2014, 2015 годов. Оставайтесь с нами, качайте любимые фильмы, игры, сериалы, книги и музыку.