img image001 image001 image001 image001 image001 image001 image001 image001 image001 image001 image001 image001 image001 image001 image001

Planets Sun Sun Sun
Статистика раздачи
Автор: PriZraK | Размер: 1.46 ГБ | Добавлен: 15 фев 2014
Раздают: 237    Качают: 127
Скачать торрент
Скачать торрент
Описание торрента

СообщениеДобавлено: 15 фев 2014 


#77
Страна: СССР
Производство: Мосфильм
Жанр: мюзикл, мелодрама, комедия
Год выпуска: 1976
Продолжительность: 01:35:16

Перевод: не требуется
Оригинальная аудиодорожка: русский
Cубтитры: нет

Режиссер: Александр Митта

В ролях:
Владимир Высоцкий, Алексей Петренко, Иван Рыжов, Михаил Кокшенов, Ирина Мазуркевич, Женя Митта, Семен Морозов, Валерий Золотухин, Михаил Глузский, Олег Табаков, Александр Барушной, Владимир Кашпур, Василий Корнуков, Юрий Комаров, Валентина Клягина, Юрий Мартынов, Владимир Махов, Владимир Меньшов, Анатолий Обухов, Ирина Печерникова, Александр Пятков, Клара Румянова, Елена Рубцова, Николай Сергеев, Андрей Файт, Станислав Чекан, Людмила Чурсина, Леонид Чубаров, Людмила Давыдова, Виллор Кузнецов, Андрей Васильев, Александр Пашутин, Наталья Вавилова, Андрей Гусев, Михаил Метёлкин, Александр Граве (текст от автора)

Описание:
Однажды царю Петру I был подарен маленький чернокожий раб, африканский принц Ибрагим - добрый и смышленный мальчуган, который стал для императора не рабом, но другом и крестником, получил отчество Петрович и фамилию Петров, быстро усвоил все науки и, став взрослым, был отправлен во Францию для получения более глубоких знаний и изысканных манер. Вернувшись из Парижа, на одном из балов арап влюбился в дочь богатого дворянина Наташу Ртищеву. Семья - в панике, царь - в восторге, готовит брак своего любимца. Но Ибрагим отказывается жениться, поскольку девушка его не любит, она в ужасе от его внешности, ей рассказывают про арапа страшные сказки. Царь настаивает на своём, Ибрагим - на своём...





Исходник: DVD5 R5
Тип релиза: DVDRip
Контейнер: AVI

Видео: 720x528 (4:3), 25 fps, XviD ~ 1734 kbps avg, 0.182 bit/pixel
Аудио: 48 kHz, Dolby AC3 5.1, 448 kbps
Общее
Полное имя : Skaz.pro.to,kak.car.Petr.arapa.zhenil.1976.DVDRip_[Youtracker]_by_AVP Studio.avi
Формат : AVI
Формат/Информация : Audio Video Interleave
Размер файла : 1,46 Гбайт
Продолжительность : 1 ч. 35 м.
Общий поток : 2192 Кбит/сек
Программа кодирования : VirtualDubModRus 1.5.10.2 (build 2542/release)
Библиотека кодирования : VirtualDubMod build 2542/release

Видео
Идентификатор : 0
Формат : MPEG-4 Visual
Профиль формата : Advanced Simple@L5
Параметр BVOP формата : 1
Параметр QPel формата : Нет
Параметр GMC формата : Без точки перехода
Параметр матрицы формата : Выборочная
Идентификатор кодека : XVID
Идентификатор кодека/Подсказка : XviD
Продолжительность : 1 ч. 35 м.
Битрейт : 1734 Кбит/сек
Ширина : 720 пикселей
Высота : 528 пикселей
Соотношение сторон : 4:3
Частота кадров : 25,000 кадров/сек
Цветовое пространство : YUV
Субдискретизация насыщенности : 4:2:0
Битовая глубина : 8 бит
Тип развёртки : Прогрессивная
Метод сжатия : С потерями
Бит/(Пиксели*Кадры) : 0.182
Размер потока : 1,15 Гбайт (79%)
Библиотека кодирования : XviD 73

Аудио
Идентификатор : 1
Формат : AC-3
Формат/Информация : Audio Coding 3
Расширение режима : CM (complete main)
Идентификатор кодека : 2000
Продолжительность : 1 ч. 35 м.
Вид битрейта : Постоянный
Битрейт : 448 Кбит/сек
Каналы : 6 каналов
Расположение каналов : Front: L C R, Side: L R, LFE
Частота : 48,0 КГц
Битовая глубина : 16 бит
Метод сжатия : С потерями
Размер потока : 305 Мбайт (20%)
Выравнивание : Разделение по промежуткам
Продолжительность промежутка : 40 мс. (1,00 видеокадр)
Время предзагрузки промежутка : 500 мс





   Похожие торренты   Торрент   Размер 
В этой теме нет новых непрочитанных сообщений. Сказ про то, как царь Пётр арапа женил (1976) DVDRip от New-Team

44 | 7

745.15 МБ

В этой теме нет новых непрочитанных сообщений. Сказ про то, как царь Пётр арапа женил (1976) DVDRip-AVC от New-Team

141 | 12

1.46 ГБ

В этой теме нет новых непрочитанных сообщений. Сказ про то, как царь Петр арапа женил (1976) DVDRip от LTarik

0 | 4

1.37 ГБ

В этой теме нет новых непрочитанных сообщений. Тайны века. Царь Петр и сын его Алексей (2004) DVDRip от Pshichko66

85 | 11

651.19 МБ

В этой теме нет новых непрочитанных сообщений. Пётр Первый (1937-1938) DVDRip от New-Team

59 | 18

2.91 ГБ

В этой теме нет новых непрочитанных сообщений. Пётр Первый (1937-1938) DVDRip от New-Team

40 | 11

2.2 ГБ

В этой теме нет новых непрочитанных сообщений. Пётр Первый (1937-1938) DVDRip-AVC от New-Team

230 | 18

2.91 ГБ




Вы не можете начинать темы
Вы не можете отвечать на сообщения
Вы не можете редактировать свои сообщения
Вы не можете удалять свои сообщения
Вы не можете добавлять вложения

Перейти:  
Для Мосгорсуда, Роскомнадзора и рекламодателей: mosgorsud-torrent[собачка]yandex.ru
 Вход
ppkBB3cker v.2 © 2008-2014 @ PPK
[ Time : 0.035s | 17 Queries | GZIP : Off ]

Торрент трекер RUTOR.IN, Не можете зайти на rutor.org? Какой новый адрес рутор? Какое зеркало рутор? Не работает rutor.org и зеркала? Тогда наш торрент специально для вас. Rutor.in неофициальное зеркало rutor. В случае если у Вас заблокирован rutor или вдруг Вы не можете на него зайти, то Вы без труда сможете скачать бесплатно и без рекламы последние новинки кино, игр, сериалов и прочего у нас, на Rutor.in. Не нужно использовать прокси, чтобы зайти на рутор, достаточно воспользоваться нашим ресурсом. Все новые фильмы, игры, сериалы, книги и музыка за 2013 и 2014 годы через торрент бесплатно. Скачивайте фильмы в хорошем качестве, игры для пк, xbox, playstation без регистрации. У нас вы найдете новые Зарубежные сериалы и Русские сериалы 2013, 2014, 2015 годов. Оставайтесь с нами, качайте любимые фильмы, игры, сериалы, книги и музыку.
cron