img image001 image001 image001 image001 image001 image001 image001 image001 image001 image001 image001 image001 image001 image001 image001

Planets Sun Sun Sun
Статистика раздачи
Автор: PriZraK | Размер: 1.46 ГБ | Добавлен: 15 фев 2014
Раздают: 143    Качают: 13
Скачать торрент
Скачать торрент
Описание торрента

СообщениеДобавлено: 15 фев 2014 


#77
Страна: СССР
Производство: Мосфильм
Жанр: мюзикл, мелодрама, комедия
Год выпуска: 1976
Продолжительность: 01:35:16

Перевод: не требуется
Оригинальная аудиодорожка: русский
Cубтитры: нет

Режиссер: Александр Митта

В ролях:
Владимир Высоцкий, Алексей Петренко, Иван Рыжов, Михаил Кокшенов, Ирина Мазуркевич, Женя Митта, Семен Морозов, Валерий Золотухин, Михаил Глузский, Олег Табаков, Александр Барушной, Владимир Кашпур, Василий Корнуков, Юрий Комаров, Валентина Клягина, Юрий Мартынов, Владимир Махов, Владимир Меньшов, Анатолий Обухов, Ирина Печерникова, Александр Пятков, Клара Румянова, Елена Рубцова, Николай Сергеев, Андрей Файт, Станислав Чекан, Людмила Чурсина, Леонид Чубаров, Людмила Давыдова, Виллор Кузнецов, Андрей Васильев, Александр Пашутин, Наталья Вавилова, Андрей Гусев, Михаил Метёлкин, Александр Граве (текст от автора)

Описание:
Однажды царю Петру I был подарен маленький чернокожий раб, африканский принц Ибрагим - добрый и смышленный мальчуган, который стал для императора не рабом, но другом и крестником, получил отчество Петрович и фамилию Петров, быстро усвоил все науки и, став взрослым, был отправлен во Францию для получения более глубоких знаний и изысканных манер. Вернувшись из Парижа, на одном из балов арап влюбился в дочь богатого дворянина Наташу Ртищеву. Семья - в панике, царь - в восторге, готовит брак своего любимца. Но Ибрагим отказывается жениться, поскольку девушка его не любит, она в ужасе от его внешности, ей рассказывают про арапа страшные сказки. Царь настаивает на своём, Ибрагим - на своём...





Исходник: DVD5 R5
Тип релиза: DVDRip-AVC
Контейнер: MKV

Видео: 720->768x556 (1,381:1), 25 fps, H264 ~ 1738 kbps avg, 0.174 bit/pixel
Аудио: 48 kHz, Dolby AC3 5.1, 448 kbps
Общее
Полное имя : Skaz.pro.to,kak.car.Petr.arapa.zhenil.1976.DVDRip-AVC_[Youtracker]_by_AVP Studio.mkv
Формат : Matroska
Версия формата : Version 2
Размер файла : 1,46 Гбайт
Продолжительность : 1 ч. 35 м.
Общий поток : 2188 Кбит/сек
Дата кодирования : UTC 2013-09-23 08:00:23
Программа кодирования : mkvmerge v6.1.0 ('Old Devil') built on Mar 4 2013 09:10:42
Библиотека кодирования : libebml v1.3.0 + libmatroska v1.4.0

Видео
Идентификатор : 1
Формат : AVC
Формат/Информация : Advanced Video Codec
Профиль формата : High@L4.1
Параметр CABAC формата : Да
Параметр ReFrames формата : 11 кадров
Идентификатор кодека : V_MPEG4/ISO/AVC
Продолжительность : 1 ч. 35 м.
Битрейт : 1738 Кбит/сек
Ширина : 720 пикселей
Высота : 556 пикселей
Соотношение сторон : 1,381
Частота кадров : 25,000 кадров/сек
Цветовое пространство : YUV
Субдискретизация насыщенности : 4:2:0
Битовая глубина : 8 бит
Тип развёртки : Прогрессивная
Бит/(Пиксели*Кадры) : 0.174
Размер потока : 1,13 Гбайт (78%)
Библиотека кодирования : x264 core 138 r2356 a1d3d17
Настройки программы : cabac=1 / ref=11 / deblock=1:-2:-1 / analyse=0x3:0x113 / me=umh / subme=9 / psy=1 / psy_rd=1.00:0.15 / mixed_ref=1 / me_range=32 / chroma_me=1 / trellis=1 / 8x8dct=1 / cqm=0 / deadzone=21,11 / fast_pskip=0 / chroma_qp_offset=-3 / threads=3 / lookahead_threads=1 / sliced_threads=0 / nr=0 / decimate=0 / interlaced=0 / bluray_compat=0 / constrained_intra=0 / bframes=8 / b_pyramid=2 / b_adapt=2 / b_bias=0 / direct=3 / weightb=1 / open_gop=0 / weightp=2 / keyint=250 / keyint_min=25 / scenecut=40 / intra_refresh=0 / rc_lookahead=60 / rc=2pass / mbtree=1 / bitrate=1738 / ratetol=1.0 / qcomp=0.60 / qpmin=0 / qpmax=69 / qpstep=4 / cplxblur=20.0 / qblur=0.5 / ip_ratio=1.40 / aq=1:1.00
Default : Да
Forced : Нет

Аудио
Идентификатор : 2
Формат : AC-3
Формат/Информация : Audio Coding 3
Расширение режима : CM (complete main)
Идентификатор кодека : A_AC3
Продолжительность : 1 ч. 35 м.
Вид битрейта : Постоянный
Битрейт : 448 Кбит/сек
Каналы : 6 каналов
Расположение каналов : Front: L C R, Side: L R, LFE
Частота : 48,0 КГц
Битовая глубина : 16 бит
Метод сжатия : С потерями
Размер потока : 305 Мбайт (20%)
Default : Да
Forced : Нет





   Похожие торренты   Торрент   Размер 
В этой теме нет новых непрочитанных сообщений. Сказ про то, как царь Пётр арапа женил (1976) DVDRip от New-Team

45 | 8

745.15 МБ

В этой теме нет новых непрочитанных сообщений. Сказ про то, как царь Пётр арапа женил (1976) DVDRip от New-Team

238 | 128

1.46 ГБ

В этой теме нет новых непрочитанных сообщений. Сказ про то, как царь Петр арапа женил (1976) DVDRip от LTarik

0 | 4

1.37 ГБ

В этой теме нет новых непрочитанных сообщений. Тайны века. Царь Петр и сын его Алексей (2004) DVDRip от Pshichko66

85 | 11

651.19 МБ

В этой теме нет новых непрочитанных сообщений. Пётр Первый (1937-1938) DVDRip от New-Team

46 | 10

2.2 ГБ

В этой теме нет новых непрочитанных сообщений. Пётр Первый (1937-1938) DVDRip от New-Team

53 | 18

2.91 ГБ

В этой теме нет новых непрочитанных сообщений. Пётр Первый (1937-1938) DVDRip-AVC от New-Team

235 | 20

2.91 ГБ




Вы не можете начинать темы
Вы не можете отвечать на сообщения
Вы не можете редактировать свои сообщения
Вы не можете удалять свои сообщения
Вы не можете добавлять вложения

Перейти:  
Для Мосгорсуда, Роскомнадзора и рекламодателей: mosgorsud-torrent[собачка]yandex.ru
 Вход
ppkBB3cker v.2 © 2008-2014 @ PPK
[ Time : 0.022s | 15 Queries | GZIP : On ]

Торрент трекер RUTOR.IN, Не можете зайти на rutor.org? Какой новый адрес рутор? Какое зеркало рутор? Не работает rutor.org и зеркала? Тогда наш торрент специально для вас. Rutor.in неофициальное зеркало rutor. В случае если у Вас заблокирован rutor или вдруг Вы не можете на него зайти, то Вы без труда сможете скачать бесплатно и без рекламы последние новинки кино, игр, сериалов и прочего у нас, на Rutor.in. Не нужно использовать прокси, чтобы зайти на рутор, достаточно воспользоваться нашим ресурсом. Все новые фильмы, игры, сериалы, книги и музыка за 2013 и 2014 годы через торрент бесплатно. Скачивайте фильмы в хорошем качестве, игры для пк, xbox, playstation без регистрации. У нас вы найдете новые Зарубежные сериалы и Русские сериалы 2013, 2014, 2015 годов. Оставайтесь с нами, качайте любимые фильмы, игры, сериалы, книги и музыку.