img image001 image001 image001 image001 image001 image001 image001 image001 image001 image001 image001 image001 image001 image001 image001

Planets Sun Sun Sun
Статистика раздачи
Автор: PriZraK | Размер: 744.2 МБ | Добавлен: 15 фев 2014
Раздают: 469    Качают: 16
Скачать торрент
Скачать торрент
Описание торрента

СообщениеДобавлено: 15 фев 2014 




Информация о фильме
Название: 72 метра
Год выхода: 2004
Жанр: боевик, триллер, драма
Режиссер: Владимир Хотиненко
В ролях: Сергей Маковецкий, Марат Башаров, Андрей Краско, Дмитрий Ульянов, Чулпан Хаматова, Станислав Никольский, Сергей Гармаш, Владислав Галкин, Игорь Ливанов, Артем Михалков

О фильме:
Рассказ «72 метра», повествующий о гибели подводной лодки, был написан Александром Покровским задолго до того, как произошла трагедия «Курска». Это не пророчество и не совпадение, а, к сожалению, логика вещей.

Самые суперсовременные самолеты падали и будут время от времени падать. Самые надежные корабли и подводные лодки тонули и, увы, еще будут тонуть. Но речь не об этом…

Бывает так, что в критической ситуации люди, считавшиеся слабыми, становятся сильными, а те, кто казался твёрдыми, как скала, смертельно слабеют. Но все вместе они — герои. Эта история не о том, что надежда умирает последней, а о том, что она не умирает никогда…
Официальный сайт

Страна: Россия
Студия: Первый канал, Студия Тритэ
Продолжительность: 01:57:13
Перевод: Не требуется

Файл
Кодек: XviD / MP3
Качество: DVDRip
Видео: 640x352 (1.82:1), 25 fps, XviD build 63 ~750 kbps avg, 0.13 bit/pixel
Звук: 48 kHz, MPEG Layer 3, 2 ch, ~128.00 kbps avg

General
Complete name : D:72 метра.avi
Format : AVI
Format/Info : Audio Video Interleave
File size : 744 MiB
Duration : 1h 57mn
Overall bit rate : 888 Kbps
Writing application : VirtualDubMod 1.5.10.3 | www.virtualdub-fr.org || (build 2550/release)
Writing library : VirtualDubMod build 2550/release

Video
ID : 0
Format : MPEG-4 Visual
Format profile : Advanced Simple@L5
Format settings, BVOP : Yes
Format settings, QPel : No
Format settings, GMC : No warppoints
Format settings, Matrix : Custom
Codec ID : XVID
Codec ID/Hint : XviD
Duration : 1h 57mn
Bit rate : 751 Kbps
Width : 640 pixels
Height : 352 pixels
Display aspect ratio : 16:9
Frame rate : 25.000 fps
Color space : YUV
Chroma subsampling : 4:2:0
Bit depth : 8 bits
Scan type : Progressive
Bits/(Pixel*Frame) : 0.133
Stream size : 630 MiB (85%)
Writing library : XviD 63

Audio
ID : 1
Format : MPEG Audio
Format version : Version 1
Format profile : Layer 3
Codec ID : 55
Codec ID/Hint : MP3
Duration : 1h 56mn
Bit rate mode : Constant
Bit rate : 128 Kbps
Channel(s) : 2 channels
Sampling rate : 48.0 KHz
Stream size : 107 MiB (14%)
Alignment : Aligned on interleaves
Interleave, duration : 40 ms (1.01 video frame)
Interleave, preload duration : 504 ms
Writing library : LAME3.98r
Encoding settings : -m s -V 4 -q 2 -lowpass 17 -b 128



   Похожие торренты   Торрент   Размер 
В этой теме нет новых непрочитанных сообщений. 72 метра (2004) DVDRip

324 | 12

1.37 ГБ

В этой теме нет новых непрочитанных сообщений. 72 метра (2004) DVDRip от KINOREAKTOR

198 | 9

2.05 ГБ

В этой теме нет новых непрочитанных сообщений. 33 квадратных метра [01-41 из 41] (1999-2004) DVDRip от Generalfilm | КПК

505 | 305

4.6 ГБ

В этой теме нет новых непрочитанных сообщений. Три метра над небом / Tre metri sopra il cielo (2004) DVDRip

26 | 4

1.37 ГБ

В этой теме нет новых непрочитанных сообщений. Три метра над небом / Три метра над уровнем неба / Tres metros sobre el cielo (2010) HDRip от Scarabey | P

209 | 27

1.45 ГБ

В этой теме нет новых непрочитанных сообщений. Три метра над небом / Три метра над уровнем неба / Tres metros sobre el cielo (2010) HDRip от Scarabey | D

303 | 5

1.46 ГБ

В этой теме нет новых непрочитанных сообщений. Три метра над небом / Три метра над уровнем неба / Tres metros sobre el cielo (2010) HDRip от Scarabey | D, P

178 | 9

2.17 ГБ




Вы не можете начинать темы
Вы не можете отвечать на сообщения
Вы не можете редактировать свои сообщения
Вы не можете удалять свои сообщения
Вы не можете добавлять вложения

Перейти:  
Для Мосгорсуда, Роскомнадзора и рекламодателей: mosgorsud-torrent[собачка]yandex.ru
 Вход
ppkBB3cker v.2 © 2008-2014 @ PPK
[ Time : 0.104s | 14 Queries | GZIP : On ]

Торрент трекер RUTOR.IN, Не можете зайти на rutor.org? Какой новый адрес рутор? Какое зеркало рутор? Не работает rutor.org и зеркала? Тогда наш торрент специально для вас. Rutor.in неофициальное зеркало rutor. В случае если у Вас заблокирован rutor или вдруг Вы не можете на него зайти, то Вы без труда сможете скачать бесплатно и без рекламы последние новинки кино, игр, сериалов и прочего у нас, на Rutor.in. Не нужно использовать прокси, чтобы зайти на рутор, достаточно воспользоваться нашим ресурсом. Все новые фильмы, игры, сериалы, книги и музыка за 2013 и 2014 годы через торрент бесплатно. Скачивайте фильмы в хорошем качестве, игры для пк, xbox, playstation без регистрации. У нас вы найдете новые Зарубежные сериалы и Русские сериалы 2013, 2014, 2015 годов. Оставайтесь с нами, качайте любимые фильмы, игры, сериалы, книги и музыку.