img image001 image001 image001 image001 image001 image001 image001 image001 image001 image001 image001 image001 image001 image001 image001

Planets Sun Sun Sun
Статистика раздачи
Автор: PriZraK | Размер: 1.46 ГБ | Добавлен: 15 фев 2014
Раздают: 32    Качают: 10
Скачать торрент
Скачать торрент
Описание торрента

СообщениеДобавлено: 15 фев 2014 


#77
Страна: СССР
Производство: Мосфильм
Жанр: комедия
Год выпуска: 1976
Продолжительность: 01:21:45

Перевод: не требуется
Оригинальная аудиодорожка: русский
Cубтитры: нет

Режиссер: Александр Серый

В ролях:
Леонид Куравлев, Татьяна Пельтцер, Алла Мещерякова, Светлана Светличная, Юрий Медведев, Валерий Носик, Роман Ткачук, Евгений Шутов, Илья Рутберг, Валентина Карева, Вера Бурлакова, Эммануил Геллер, Николай Горлов, Николай Сморчков, Ян Янакиев, Людмила Карауш, Юрий Леонидов...

Описание:
Жизнь братьев-близнецов Кашкиных сложилась по-разному: один живет в столице и вполне преуспел в качестве модного… банщика. Другой же так и остался в родном селе простым инспектором рыбнадзора. Но вот случается беда, и столичному счастливцу приходится заменить брата на его посту…





Исходник: DVD5 R5
Тип релиза: DVDRip
Контейнер: AVI

Видео: 720x352 (2,045:1), 25 fps, XviD ~ 2350 kbps avg, 0.371 bit/pixel
Аудио: 48 kHz, Dolby AC3 2.0, 192 kbps
Общее
Полное имя : Ty–mne,ya–tebe.1976.DVDRip_[Youtracker]_by_AVP Studio.avi
Формат : AVI
Формат/Информация : Audio Video Interleave
Размер файла : 1,46 Гбайт
Продолжительность : 1 ч. 21 м.
Общий поток : 2552 Кбит/сек
Программа кодирования : VirtualDubModRus 1.5.10.2 (build 2542/release)
Библиотека кодирования : VirtualDubMod build 2542/release

Видео
Идентификатор : 0
Формат : MPEG-4 Visual
Профиль формата : Advanced Simple@L5
Параметр BVOP формата : 1
Параметр QPel формата : Нет
Параметр GMC формата : Без точки перехода
Параметр матрицы формата : Выборочная
Идентификатор кодека : XVID
Идентификатор кодека/Подсказка : XviD
Продолжительность : 1 ч. 21 м.
Битрейт : 2350 Кбит/сек
Ширина : 720 пикселей
Высота : 352 пикселя
Соотношение сторон : 2,045
Частота кадров : 25,000 кадров/сек
Цветовое пространство : YUV
Субдискретизация насыщенности : 4:2:0
Битовая глубина : 8 бит
Тип развёртки : Прогрессивная
Метод сжатия : С потерями
Бит/(Пиксели*Кадры) : 0.371
Размер потока : 1,34 Гбайт (92%)
Библиотека кодирования : XviD 73

Аудио
Идентификатор : 1
Формат : AC-3
Формат/Информация : Audio Coding 3
Расширение режима : CM (complete main)
Идентификатор кодека : 2000
Продолжительность : 1 ч. 21 м.
Вид битрейта : Постоянный
Битрейт : 192 Кбит/сек
Каналы : 2 канала
Расположение каналов : Front: L R
Частота : 48,0 КГц
Битовая глубина : 16 бит
Метод сжатия : С потерями
Размер потока : 112 Мбайт (8%)
Выравнивание : Разделение по промежуткам
Продолжительность промежутка : 40 мс. (1,00 видеокадр)
Время предзагрузки промежутка : 500 мс





   Похожие торренты   Торрент   Размер 
В этой теме нет новых непрочитанных сообщений. Ты - мне, я - тебе (1976) DVDRip от New-Team

7 | 8

744.73 МБ

В этой теме нет новых непрочитанных сообщений. Ты - мне, я - тебе (1976) DVDRip-AVC от New-Team

12 | 7

743.67 МБ

В этой теме нет новых непрочитанных сообщений. Ты - мне, я - тебе (Ты мне, я тебе) (1976) DVDRip

453 | 5

1.37 ГБ

В этой теме нет новых непрочитанных сообщений. Григорий Горин - Ты - мне, я - тебе! (1976) (2012) MP3

8 | 11

86.02 МБ

В этой теме нет новых непрочитанных сообщений. Дни Турбиных [01-03 из 03] (1976) DVDRip от New-Team

42 | 16

2.19 ГБ

В этой теме нет новых непрочитанных сообщений. Дни Турбиных [01-03 из 03] (1976) DVDRip от New-Team

38 | 17

2.91 ГБ

В этой теме нет новых непрочитанных сообщений. Дни Турбиных [01-03 из 03] (1976) DVDRip-AVC от New-Team

94 | 9

2.91 ГБ




Вы не можете начинать темы
Вы не можете отвечать на сообщения
Вы не можете редактировать свои сообщения
Вы не можете удалять свои сообщения
Вы не можете добавлять вложения

Перейти:  
Для Мосгорсуда, Роскомнадзора и рекламодателей: mosgorsud-torrent[собачка]yandex.ru
 Вход
ppkBB3cker v.2 © 2008-2014 @ PPK
[ Time : 0.033s | 14 Queries | GZIP : On ]

Торрент трекер RUTOR.IN, Не можете зайти на rutor.org? Какой новый адрес рутор? Какое зеркало рутор? Не работает rutor.org и зеркала? Тогда наш торрент специально для вас. Rutor.in неофициальное зеркало rutor. В случае если у Вас заблокирован rutor или вдруг Вы не можете на него зайти, то Вы без труда сможете скачать бесплатно и без рекламы последние новинки кино, игр, сериалов и прочего у нас, на Rutor.in. Не нужно использовать прокси, чтобы зайти на рутор, достаточно воспользоваться нашим ресурсом. Все новые фильмы, игры, сериалы, книги и музыка за 2013 и 2014 годы через торрент бесплатно. Скачивайте фильмы в хорошем качестве, игры для пк, xbox, playstation без регистрации. У нас вы найдете новые Зарубежные сериалы и Русские сериалы 2013, 2014, 2015 годов. Оставайтесь с нами, качайте любимые фильмы, игры, сериалы, книги и музыку.