img image001 image001 image001 image001 image001 image001 image001 image001 image001 image001 image001 image001 image001 image001 image001

Planets Sun Sun Sun
Статистика раздачи
Автор: PriZraK | Размер: 1.46 ГБ | Добавлен: 15 фев 2014
Раздают: 74    Качают: 20
Скачать торрент
Скачать торрент
Описание торрента

СообщениеДобавлено: 15 фев 2014 


#77
Год выпуска: 2012
Выпущено: Россия
Продолжительность: 01:37:21

Жанр: драма, история
Cубтитры: русский

Режиссер: Александр Устюгов

В ролях: Максим Аверин, Нонна Гришаева, Юрий Ицков, Кирилл Жандаров, Сергей Перегудов, Ирина Соколова, Юрий Герцман, Рудольф Кульд, Виталий Тимашков, Олег Гаркуша, Александр Марушев, Вячеслав Степанян, Сергей Оленберг, Алексей Блохин, Алексей Винников, Дмитрий Поднозов, Дмитрий Максимов, Геннадий Смирнов, Виталий Жигалин, Азамат Нигманов, Василий Гузов, Евгений Волошин, Александр Овчинников, Сергей Уманов, Олег Алмазов, Александр Стёпин, Наталья Домничева, Ольга Иогансен, Сергей Петров, Валерий Дьяченко

Описание: Фильм повествует о событиях, происходивших перед Великой Отечественной войной и в первые дни войны на лесоповале, в советском лагере, находившемся на побережье Белого моря. Среди зэков есть один по кличке Комиссар - бывший главный редактор газеты "Трудовой народ" Михаил Донцов. До лагеря у него было всё - война в Испании и написанная об этом книга, ответственный пост, хорошая квартира, личный автомобиль, любимая женщина - актриса и певица, красавица Таисия Мещерская. Был у Донцова и соперник, также добивавшийся внимания актрисы, - нарком внутренних дел СССР Лаврентий Берия... Теперь не осталось ничего, кроме лагеря и тяжкой работы. Газет заключенным не дают. О том, что началась война, они узнают из случайного обрывка. В этот же день в лагерь прибывает этап с артистами. Среди них находится и Таисия. А вскоре в лагере появляются фашисты...





Исходник: DVD9 R5
Качество видео: DVDRip
Формат видео: AVI

Видео: 720x400 (16:9), 25 fps, Xvid ~1941 kbps avg, 0.270 bit/pixe
Аудио: 48 kHz, AC3 Dolby Digital, 2 ch, 192 kbps
Формат субтитров: SoftSub (srt)
Доп. информация: Звук в АС3 5.1 384 кбпс с оригинального DVD9 убит напрочь (частотка зарезана до 14 кгц, спасибо "Кармен видео"), поэтому в данном релизе использована вторая аудиодорожка с этого же диска. Она хоть и не дотягивает до стандарта, но в ней по крайней мере спектр звука 18 кгц (в SATRip-е на Трушке - 16.5).

Раздача от:
Общее
Полное имя : Sluzhu.Sovetskomu.Soyuzu.2012.O.DVDRip_[Youtracker]_by_avprohSluzhu.Sovetskomu.Soyuzu.2012.O.DVDRip_[Youtracker]_by_avproh.avi
Формат : AVI
Формат/Информация : Audio Video Interleave
Размер файла : 1,46 Гбайт
Продолжительность : 1 ч. 37 м.
Общий поток : 2142 Кбит/сек
Программа кодирования : VirtualDubMod 1.5.10.3 (build 2550/release)
Библиотека кодирования : VirtualDubMod build 2550/release

Видео
Идентификатор : 0
Формат : MPEG-4 Visual
Профиль формата : Advanced Simple@L5
Параметр BVOP формата : 1
Параметр QPel формата : Нет
Параметр GMC формата : Без точки перехода
Параметр матрицы формата : Выборочная
Идентификатор кодека : XVID
Идентификатор кодека/Подсказка : XviD
Продолжительность : 1 ч. 37 м.
Битрейт : 1941 Кбит/сек
Ширина : 720 пикселей
Высота : 400 пикселей
Соотношение сторон : 16:9
Частота кадров : 25,000 кадров/сек
Цветовое пространство : YUV
Субдискретизация насыщенности : 4:2:0
Битовая глубина : 8 бит
Тип развёртки : Прогрессивная
Метод сжатия : С потерями
Бит/(Пиксели*Кадры) : 0.270
Размер потока : 1,32 Гбайт (91%)
Библиотека кодирования : XviD 65

Аудио
Идентификатор : 1
Формат : AC-3
Формат/Информация : Audio Coding 3
Расширение режима : CM (complete main)
Параметр Endianness формата : Big
Идентификатор кодека : 2000
Продолжительность : 1 ч. 37 м.
Вид битрейта : Постоянный
Битрейт : 192 Кбит/сек
Каналы : 2 канала
Расположение каналов : Front: L R
Частота : 48,0 КГц
Битовая глубина : 16 бит
Метод сжатия : С потерями
Размер потока : 134 Мбайт (9%)
Выравнивание : Разделение по промежуткам
Продолжительность промежутка : 40 мс. (1,00 видеокадр)
Время предзагрузки промежутка : 500 мс.






   Похожие торренты   Торрент   Размер 
В этой теме нет новых непрочитанных сообщений. Служу Советскому Союзу! (2012) DVDRip-AVC от New-Team

6 | 5

1.45 ГБ

В этой теме нет новых непрочитанных сообщений. Служу Советскому Союзу (2012) DVDRip | Лицензия

49 | 4

744.72 МБ

В этой теме нет новых непрочитанных сообщений. Служу Советскому Союзу! (2012) DVDRip от F-Torrent | Лицензия

79 | 5

1.37 ГБ

В этой теме нет новых непрочитанных сообщений. Служу Советскому Союзу (2012) DVDRip | КПК от Generalfilm

5 | 7

331.7 МБ

В этой теме нет новых непрочитанных сообщений. Служу Советскому Союзу! (2012) DVDRip-AVC от olegek70

12 | 3

1.45 ГБ

В этой теме нет новых непрочитанных сообщений. Служу Советскому Союзу! (2012) DVB

3 | 1

3.65 ГБ

В этой теме нет новых непрочитанных сообщений. Служу Советскому Союзу! (2012) DVD9

11 | 2

5.87 ГБ




Вы не можете начинать темы
Вы не можете отвечать на сообщения
Вы не можете редактировать свои сообщения
Вы не можете удалять свои сообщения
Вы не можете добавлять вложения

Перейти:  
Для Мосгорсуда, Роскомнадзора и рекламодателей: mosgorsud-torrent[собачка]yandex.ru
 Вход
ppkBB3cker v.2 © 2008-2014 @ PPK
[ Time : 0.050s | 15 Queries | GZIP : Off ]

cron