img image001 image001 image001 image001 image001 image001 image001 image001 image001 image001 image001 image001 image001 image001 image001

Planets Sun Sun Sun
Статистика раздачи
Автор: PriZraK | Размер: 743.67 МБ | Добавлен: 15 фев 2014
Раздают: 12    Качают: 6
Скачать торрент
Скачать торрент
Описание торрента

СообщениеДобавлено: 15 фев 2014 


#77
Страна: СССР
Производство: Мосфильм
Жанр: комедия
Год выпуска: 1976
Продолжительность: 01:21:45

Перевод: не требуется
Оригинальная аудиодорожка: русский
Cубтитры: нет

Режиссер: Александр Серый

В ролях:
Леонид Куравлев, Татьяна Пельтцер, Алла Мещерякова, Светлана Светличная, Юрий Медведев, Валерий Носик, Роман Ткачук, Евгений Шутов, Илья Рутберг, Валентина Карева, Вера Бурлакова, Эммануил Геллер, Николай Горлов, Николай Сморчков, Ян Янакиев, Людмила Карауш, Юрий Леонидов...

Описание:
Жизнь братьев-близнецов Кашкиных сложилась по-разному: один живет в столице и вполне преуспел в качестве модного… банщика. Другой же так и остался в родном селе простым инспектором рыбнадзора. Но вот случается беда, и столичному счастливцу приходится заменить брата на его посту…





Исходник: DVD5 R5
Тип релиза: DVDRip-AVC
Контейнер: MKV

Видео: 720->768x384 (2,000:1), 25 fps, H264 ~ 1078 kbps avg, 0.156 bit/pixel
Аудио: 48 kHz, Dolby AC3 2.0, 192 kbps
Общее
Полное имя : Ty–mne,ya–tebe.1976.DVDRip-AVC_[Youtracker]_by_AVP Studio.mkv
Формат : Matroska
Версия формата : Version 2
Размер файла : 744 Мбайт
Продолжительность : 1 ч. 21 м.
Общий поток : 1272 Кбит/сек
Дата кодирования : UTC 2013-09-24 01:09:17
Программа кодирования : mkvmerge v6.1.0 ('Old Devil') built on Mar 4 2013 09:10:42
Библиотека кодирования : libebml v1.3.0 + libmatroska v1.4.0

Видео
Идентификатор : 1
Формат : AVC
Формат/Информация : Advanced Video Codec
Профиль формата : High@L4.1
Параметр CABAC формата : Да
Параметр ReFrames формата : 11 кадров
Идентификатор кодека : V_MPEG4/ISO/AVC
Продолжительность : 1 ч. 21 м.
Битрейт : 1078 Кбит/сек
Ширина : 720 пикселей
Высота : 384 пикселя
Соотношение сторон : 2,000
Частота кадров : 25,000 кадров/сек
Цветовое пространство : YUV
Субдискретизация насыщенности : 4:2:0
Битовая глубина : 8 бит
Тип развёртки : Прогрессивная
Бит/(Пиксели*Кадры) : 0.156
Размер потока : 617 Мбайт (83%)
Библиотека кодирования : x264 core 138 r2356 a1d3d17
Настройки программы : cabac=1 / ref=11 / deblock=1:-2:-1 / analyse=0x3:0x113 / me=umh / subme=9 / psy=1 / psy_rd=1.00:0.15 / mixed_ref=1 / me_range=32 / chroma_me=1 / trellis=1 / 8x8dct=1 / cqm=0 / deadzone=21,11 / fast_pskip=0 / chroma_qp_offset=-3 / threads=3 / lookahead_threads=1 / sliced_threads=0 / nr=0 / decimate=0 / interlaced=0 / bluray_compat=0 / constrained_intra=0 / bframes=8 / b_pyramid=2 / b_adapt=2 / b_bias=0 / direct=3 / weightb=1 / open_gop=0 / weightp=2 / keyint=250 / keyint_min=25 / scenecut=40 / intra_refresh=0 / rc_lookahead=60 / rc=2pass / mbtree=1 / bitrate=1078 / ratetol=1.0 / qcomp=0.60 / qpmin=0 / qpmax=69 / qpstep=4 / cplxblur=20.0 / qblur=0.5 / ip_ratio=1.40 / aq=1:1.00
Default : Да
Forced : Нет

Аудио
Идентификатор : 2
Формат : AC-3
Формат/Информация : Audio Coding 3
Расширение режима : CM (complete main)
Идентификатор кодека : A_AC3
Продолжительность : 1 ч. 21 м.
Вид битрейта : Постоянный
Битрейт : 192 Кбит/сек
Каналы : 2 канала
Расположение каналов : Front: L R
Частота : 48,0 КГц
Битовая глубина : 16 бит
Метод сжатия : С потерями
Размер потока : 112 Мбайт (15%)
Default : Да
Forced : Нет





   Похожие торренты   Торрент   Размер 
В этой теме нет новых непрочитанных сообщений. Ты - мне, я - тебе (1976) DVDRip от New-Team

41 | 10

1.46 ГБ

В этой теме нет новых непрочитанных сообщений. Ты - мне, я - тебе (1976) DVDRip от New-Team

8 | 8

744.73 МБ

В этой теме нет новых непрочитанных сообщений. Ты - мне, я - тебе (Ты мне, я тебе) (1976) DVDRip

453 | 5

1.37 ГБ

В этой теме нет новых непрочитанных сообщений. Григорий Горин - Ты - мне, я - тебе! (1976) (2012) MP3

8 | 11

86.02 МБ

В этой теме нет новых непрочитанных сообщений. Дни Турбиных [01-03 из 03] (1976) DVDRip-AVC от New-Team

96 | 9

2.91 ГБ

В этой теме нет новых непрочитанных сообщений. Дни Турбиных [01-03 из 03] (1976) DVDRip от New-Team

46 | 16

2.19 ГБ

В этой теме нет новых непрочитанных сообщений. Дни Турбиных [01-03 из 03] (1976) DVDRip от New-Team

45 | 18

2.91 ГБ




Вы не можете начинать темы
Вы не можете отвечать на сообщения
Вы не можете редактировать свои сообщения
Вы не можете удалять свои сообщения
Вы не можете добавлять вложения

Перейти:  
Для Мосгорсуда, Роскомнадзора и рекламодателей: mosgorsud-torrent[собачка]yandex.ru
 Вход
ppkBB3cker v.2 © 2008-2014 @ PPK
[ Time : 0.056s | 14 Queries | GZIP : Off ]

Торрент трекер RUTOR.IN, Не можете зайти на rutor.org? Какой новый адрес рутор? Какое зеркало рутор? Не работает rutor.org и зеркала? Тогда наш торрент специально для вас. Rutor.in неофициальное зеркало rutor. В случае если у Вас заблокирован rutor или вдруг Вы не можете на него зайти, то Вы без труда сможете скачать бесплатно и без рекламы последние новинки кино, игр, сериалов и прочего у нас, на Rutor.in. Не нужно использовать прокси, чтобы зайти на рутор, достаточно воспользоваться нашим ресурсом. Все новые фильмы, игры, сериалы, книги и музыка за 2013 и 2014 годы через торрент бесплатно. Скачивайте фильмы в хорошем качестве, игры для пк, xbox, playstation без регистрации. У нас вы найдете новые Зарубежные сериалы и Русские сериалы 2013, 2014, 2015 годов. Оставайтесь с нами, качайте любимые фильмы, игры, сериалы, книги и музыку.