img image001 image001 image001 image001 image001 image001 image001 image001 image001 image001 image001 image001 image001 image001 image001

Planets Sun Sun Sun
Статистика раздачи
Автор: PriZraK | Размер: 744.06 МБ | Добавлен: 15 фев 2014
Раздают: 25    Качают: 19
Скачать торрент
Скачать торрент
Описание торрента

СообщениеДобавлено: 15 фев 2014 


#77
Страна: СССР
Производство: Мосфильм
Жанр: комедия
Год выпуска: 1986
Продолжительность: 01:11:27

Перевод: не требуется
Оригинальная аудиодорожка: русский
Cубтитры: нет

Режиссер: Мунид Закиров

В ролях:
Вячеслав Гостинский, Олег Анофриев, Борислав Брондуков, Виктор Ильичев, Михаил Кокшенов, Спартак Мишулин, Евгений Моргунов, Роман Ткачук, Лариса Удовиченко, Леонид Харитонов, Юрий Медведев, Николай Скоробогатов...

Описание:
Для пятерых закадычных друзей — Шефа, Ляли, Начснаба, Толкача и Эдика — существует только одна проблема: где бы достать выпивку. Вся их энергия и силы направлены на поиски бутылки. В связи с этим жизнь приятелей наполнена бесконечными приключениями: то в милицию заберут, то кто-то окажется на больничной койке…





Исходник: DVD5 R5
Тип релиза: DVDRip
Контейнер: AVI

Видео: 688x320 (2,2:1), 25 fps, XviD ~ 1254 kbps avg, 0.228 bit/pixel
Аудио: 48 kHz, Dolby AC3 2.0, 192 kbps
Общее
Полное имя : Horosho.sidim!1986.DVDRip_[Youtracker]_by_AVP Studio.avi
Формат : AVI
Формат/Информация : Audio Video Interleave
Размер файла : 744 Мбайт
Продолжительность : 1 ч. 11 м.
Общий поток : 1456 Кбит/сек
Программа кодирования : VirtualDubModRus 1.5.10.2 (build 2542/release)
Библиотека кодирования : VirtualDubMod build 2542/release

Видео
Идентификатор : 0
Формат : MPEG-4 Visual
Профиль формата : Advanced Simple@L5
Параметр BVOP формата : 1
Параметр QPel формата : Нет
Параметр GMC формата : Без точки перехода
Параметр матрицы формата : Выборочная
Идентификатор кодека : XVID
Идентификатор кодека/Подсказка : XviD
Продолжительность : 1 ч. 11 м.
Битрейт : 1254 Кбит/сек
Ширина : 688 пикселей
Высота : 320 пикселей
Соотношение сторон : 2,2:1
Частота кадров : 25,000 кадров/сек
Цветовое пространство : YUV
Субдискретизация насыщенности : 4:2:0
Битовая глубина : 8 бит
Тип развёртки : Прогрессивная
Метод сжатия : С потерями
Бит/(Пиксели*Кадры) : 0.228
Размер потока : 641 Мбайт (86%)
Библиотека кодирования : XviD 73

Аудио
Идентификатор : 1
Формат : AC-3
Формат/Информация : Audio Coding 3
Расширение режима : CM (complete main)
Идентификатор кодека : 2000
Продолжительность : 1 ч. 11 м.
Вид битрейта : Постоянный
Битрейт : 192 Кбит/сек
Каналы : 2 канала
Расположение каналов : Front: L R
Частота : 48,0 КГц
Битовая глубина : 16 бит
Метод сжатия : С потерями
Размер потока : 98,1 Мбайт (13%)
Выравнивание : Разделение по промежуткам
Продолжительность промежутка : 40 мс. (1,00 видеокадр)
Время предзагрузки промежутка : 500 мс.





   Похожие торренты   Торрент   Размер 
В этой теме нет новых непрочитанных сообщений. Хорошо сидим! (1986) DVDRip-AVC от New-Team

35 | 4

744.1 МБ

В этой теме нет новых непрочитанных сообщений. Хорошо сидим! (1986) DVDRip

58 | 16

846.63 МБ

В этой теме нет новых непрочитанных сообщений. Перехват (1986) DVDRip от New-Team

32 | 14

745.09 МБ

В этой теме нет новых непрочитанных сообщений. Перехват (1986) DVDRip от New-Team

49 | 29

1.46 ГБ

В этой теме нет новых непрочитанных сообщений. Перехват (1986) DVDRip-AVC от New-Team

100 | 18

1.46 ГБ

В этой теме нет новых непрочитанных сообщений. Золотая цепь (1986) DVDRip от New-Team

12 | 6

1.46 ГБ

В этой теме нет новых непрочитанных сообщений. Борис Годунов (1986) DVDRip-AVC от New-Team

20 | 5

2.19 ГБ




Вы не можете начинать темы
Вы не можете отвечать на сообщения
Вы не можете редактировать свои сообщения
Вы не можете удалять свои сообщения
Вы не можете добавлять вложения

Перейти:  
Для Мосгорсуда, Роскомнадзора и рекламодателей: mosgorsud-torrent[собачка]yandex.ru
 Вход
ppkBB3cker v.2 © 2008-2014 @ PPK
[ Time : 0.039s | 15 Queries | GZIP : Off ]

cron