img image001 image001 image001 image001 image001 image001 image001 image001 image001 image001 image001 image001 image001 image001 image001

Planets Sun Sun Sun
Статистика раздачи
Автор: PriZraK | Размер: 744.06 МБ | Добавлен: 15 фев 2014
Раздают: 25    Качают: 20
Скачать торрент
Скачать торрент
Описание торрента

СообщениеДобавлено: 15 фев 2014 


#77
Страна: СССР
Производство: Мосфильм
Жанр: комедия
Год выпуска: 1986
Продолжительность: 01:11:27

Перевод: не требуется
Оригинальная аудиодорожка: русский
Cубтитры: нет

Режиссер: Мунид Закиров

В ролях:
Вячеслав Гостинский, Олег Анофриев, Борислав Брондуков, Виктор Ильичев, Михаил Кокшенов, Спартак Мишулин, Евгений Моргунов, Роман Ткачук, Лариса Удовиченко, Леонид Харитонов, Юрий Медведев, Николай Скоробогатов...

Описание:
Для пятерых закадычных друзей — Шефа, Ляли, Начснаба, Толкача и Эдика — существует только одна проблема: где бы достать выпивку. Вся их энергия и силы направлены на поиски бутылки. В связи с этим жизнь приятелей наполнена бесконечными приключениями: то в милицию заберут, то кто-то окажется на больничной койке…





Исходник: DVD5 R5
Тип релиза: DVDRip
Контейнер: AVI

Видео: 688x320 (2,2:1), 25 fps, XviD ~ 1254 kbps avg, 0.228 bit/pixel
Аудио: 48 kHz, Dolby AC3 2.0, 192 kbps
Общее
Полное имя : Horosho.sidim!1986.DVDRip_[Youtracker]_by_AVP Studio.avi
Формат : AVI
Формат/Информация : Audio Video Interleave
Размер файла : 744 Мбайт
Продолжительность : 1 ч. 11 м.
Общий поток : 1456 Кбит/сек
Программа кодирования : VirtualDubModRus 1.5.10.2 (build 2542/release)
Библиотека кодирования : VirtualDubMod build 2542/release

Видео
Идентификатор : 0
Формат : MPEG-4 Visual
Профиль формата : Advanced Simple@L5
Параметр BVOP формата : 1
Параметр QPel формата : Нет
Параметр GMC формата : Без точки перехода
Параметр матрицы формата : Выборочная
Идентификатор кодека : XVID
Идентификатор кодека/Подсказка : XviD
Продолжительность : 1 ч. 11 м.
Битрейт : 1254 Кбит/сек
Ширина : 688 пикселей
Высота : 320 пикселей
Соотношение сторон : 2,2:1
Частота кадров : 25,000 кадров/сек
Цветовое пространство : YUV
Субдискретизация насыщенности : 4:2:0
Битовая глубина : 8 бит
Тип развёртки : Прогрессивная
Метод сжатия : С потерями
Бит/(Пиксели*Кадры) : 0.228
Размер потока : 641 Мбайт (86%)
Библиотека кодирования : XviD 73

Аудио
Идентификатор : 1
Формат : AC-3
Формат/Информация : Audio Coding 3
Расширение режима : CM (complete main)
Идентификатор кодека : 2000
Продолжительность : 1 ч. 11 м.
Вид битрейта : Постоянный
Битрейт : 192 Кбит/сек
Каналы : 2 канала
Расположение каналов : Front: L R
Частота : 48,0 КГц
Битовая глубина : 16 бит
Метод сжатия : С потерями
Размер потока : 98,1 Мбайт (13%)
Выравнивание : Разделение по промежуткам
Продолжительность промежутка : 40 мс. (1,00 видеокадр)
Время предзагрузки промежутка : 500 мс.





   Похожие торренты   Торрент   Размер 
В этой теме нет новых непрочитанных сообщений. Хорошо сидим! (1986) DVDRip-AVC от New-Team

37 | 5

744.1 МБ

В этой теме нет новых непрочитанных сообщений. Хорошо сидим! (1986) DVDRip

58 | 16

846.63 МБ

В этой теме нет новых непрочитанных сообщений. Перехват (1986) DVDRip от New-Team

32 | 14

745.09 МБ

В этой теме нет новых непрочитанных сообщений. Перехват (1986) DVDRip от New-Team

47 | 31

1.46 ГБ

В этой теме нет новых непрочитанных сообщений. Перехват (1986) DVDRip-AVC от New-Team

99 | 20

1.46 ГБ

В этой теме нет новых непрочитанных сообщений. Борис Годунов (1986) DVDRip-AVC от New-Team

19 | 7

2.19 ГБ

В этой теме нет новых непрочитанных сообщений. Покушение на ГОЭЛРО (1986) DVDRip от New-Team

101 | 22

2.91 ГБ




Вы не можете начинать темы
Вы не можете отвечать на сообщения
Вы не можете редактировать свои сообщения
Вы не можете удалять свои сообщения
Вы не можете добавлять вложения

Перейти:  
Для Мосгорсуда, Роскомнадзора и рекламодателей: mosgorsud-torrent[собачка]yandex.ru
 Вход
ppkBB3cker v.2 © 2008-2014 @ PPK
[ Time : 0.031s | 14 Queries | GZIP : Off ]
CGP output time : 0.037s | 5 Queries | GZIP : Off

Торрент трекер RUTOR.IN, Не можете зайти на rutor.org? Какой новый адрес рутор? Какое зеркало рутор? Не работает rutor.org и зеркала? Тогда наш торрент специально для вас. Rutor.in неофициальное зеркало rutor. В случае если у Вас заблокирован rutor или вдруг Вы не можете на него зайти, то Вы без труда сможете скачать бесплатно и без рекламы последние новинки кино, игр, сериалов и прочего у нас, на Rutor.in. Не нужно использовать прокси, чтобы зайти на рутор, достаточно воспользоваться нашим ресурсом. Все новые фильмы, игры, сериалы, книги и музыка за 2013 и 2014 годы через торрент бесплатно. Скачивайте фильмы в хорошем качестве, игры для пк, xbox, playstation без регистрации. У нас вы найдете новые Зарубежные сериалы и Русские сериалы 2013, 2014, 2015 годов. Оставайтесь с нами, качайте любимые фильмы, игры, сериалы, книги и музыку.