img image001 image001 image001 image001 image001 image001 image001 image001 image001 image001 image001 image001 image001 image001 image001

Planets Sun Sun Sun
Статистика раздачи
Автор: PriZraK | Размер: 743.98 МБ | Добавлен: 15 фев 2014
Раздают: 59    Качают: 10
Скачать торрент
Скачать торрент
Описание торрента

СообщениеДобавлено: 15 фев 2014 


#77
Страна: СССР
Производство: Студия Горького
Жанр: комедия, семейный
Год выпуска: 1986
Продолжительность: 01:10:24

Перевод: не требуется
Оригинальная аудиодорожка: русский
Cубтитры: нет

Режиссер: Владимир Грамматиков

В ролях:
Сергей Проханов, Людмила Шагалова, Елизавета Уварова, Марина Матвеенко, Сергей Бачурский, Валерий Кисленко, Феликс Кроль, Вадим Александров, Надежда Самсонова, Александр Сажин, Валентин Брылеев, Геннадий Ялович, Ольга Григорьева, Клавдия Козленкова, Леонид Трутнев, Александра Панова, Наталья Харахорина, Артур Берзиньш, Вячеслав Субачев, дети - Максим Топпер, Олег Корхин, Андрюша Пискунов, Дима Винаров, Катя Николаи, Антон Лещинский, Аня Мищенко, Костя Левин, Дима Дашевский, Света Левина, Саша Чирва, Кристина Девитт, Марина Торчинская, Таня и Наташа Томышевы, Владик Воронченко, Володя Пучков, Алеша Банник, Сережа Клоков...

Описание:
Молодой человек, лоботряс-допризывник Кеша Четвергов после окончания школы никак не может найти себе дело по душе, не способен он надолго задержаться ни на одной работе. (Да и к чему задерживаться, если скоро в армию?) Ну не хочет Кешка превращаться во взрослого человека! И вот к его проблеме подключились общественность ЖЭКа, участковый Евсеев и заведующая детским садом Марина Борисовна, обнаружившая у Четвергова талант воспитателя. Кеша становится объектом смелого эксперимента: его берут на работу в детский сад в качестве...ночной няни. Как говорится, талант не спрячешь!





Исходник: DVD5 R5
Тип релиза: DVDRip
Контейнер: AVI

Видео: 688x288 (2,40:1), 25 fps, XviD ~ 1020 kbps avg, 0.206 bit/pixel
Аудио: 48 kHz, Dolby AC3 5.1, 448 kbps
Общее
Полное имя : Usatyy.njan.1977.DVDRip_[Youtracker]_by_AVP Studio.avi
Формат : AVI
Формат/Информация : Audio Video Interleave
Размер файла : 744 Мбайт
Продолжительность : 1 ч. 10 м.
Общий поток : 1477 Кбит/сек
Программа кодирования : VirtualDubModRus 1.5.10.2 (build 2542/release)
Библиотека кодирования : VirtualDubMod build 2542/release

Видео
Идентификатор : 0
Формат : MPEG-4 Visual
Профиль формата : Advanced Simple@L5
Параметр BVOP формата : 1
Параметр QPel формата : Нет
Параметр GMC формата : Без точки перехода
Параметр матрицы формата : Выборочная
Идентификатор кодека : XVID
Идентификатор кодека/Подсказка : XviD
Продолжительность : 1 ч. 10 м.
Битрейт : 1020 Кбит/сек
Ширина : 688 пикселей
Высота : 288 пикселей
Соотношение сторон : 2,40:1
Частота кадров : 25,000 кадров/сек
Цветовое пространство : YUV
Субдискретизация насыщенности : 4:2:0
Битовая глубина : 8 бит
Тип развёртки : Прогрессивная
Метод сжатия : С потерями
Бит/(Пиксели*Кадры) : 0.206
Размер потока : 514 Мбайт (69%)
Библиотека кодирования : XviD 73

Аудио
Идентификатор : 1
Формат : AC-3
Формат/Информация : Audio Coding 3
Расширение режима : CM (complete main)
Идентификатор кодека : 2000
Продолжительность : 1 ч. 10 м.
Вид битрейта : Постоянный
Битрейт : 448 Кбит/сек
Каналы : 6 каналов
Расположение каналов : Front: L C R, Side: L R, LFE
Частота : 48,0 КГц
Битовая глубина : 16 бит
Метод сжатия : С потерями
Задержка видео : 382 мс.
Размер потока : 225 Мбайт (30%)
Выравнивание : Разделение по промежуткам
Продолжительность промежутка : 40 мс. (1,00 видеокадр)
Время предзагрузки промежутка : 500 мс





   Похожие торренты   Торрент   Размер 
В этой теме нет новых непрочитанных сообщений. Усатый нянь (1977) DVDRip-AVC от New-Team

36 | 4

744.81 МБ

В этой теме нет новых непрочитанных сообщений. Усатый нянь (1977) DVDRip-AVC от ExKinoRay

666 | 35

1.45 ГБ

В этой теме нет новых непрочитанных сообщений. Усатый нянь (1977) DVDRip от ExKinoRay

166 | 16

1.37 ГБ

В этой теме нет новых непрочитанных сообщений. Усатый нянь (1977) DVDRip от Alekxandr48

15 | 3

701.18 МБ

В этой теме нет новых непрочитанных сообщений. Усатый нянь (1977) DVD5 by гаврила

25 | 3

3.5 ГБ

В этой теме нет новых непрочитанных сообщений. Том и Джерри: Трепещи, Усатый! / Tom and Jerry in Shiver Me Whiskers (2006) DVDRip от slevin111

40 | 5

698 МБ

В этой теме нет новых непрочитанных сообщений. Трактир на Пятницкой (1977) DVDRip от New-Team

71 | 7

744.99 МБ




Вы не можете начинать темы
Вы не можете отвечать на сообщения
Вы не можете редактировать свои сообщения
Вы не можете удалять свои сообщения
Вы не можете добавлять вложения

Перейти:  
Для Мосгорсуда, Роскомнадзора и рекламодателей: mosgorsud-torrent[собачка]yandex.ru
 Вход
ppkBB3cker v.2 © 2008-2014 @ PPK
[ Time : 0.067s | 14 Queries | GZIP : Off ]

Торрент трекер RUTOR.IN, Не можете зайти на rutor.org? Какой новый адрес рутор? Какое зеркало рутор? Не работает rutor.org и зеркала? Тогда наш торрент специально для вас. Rutor.in неофициальное зеркало rutor. В случае если у Вас заблокирован rutor или вдруг Вы не можете на него зайти, то Вы без труда сможете скачать бесплатно и без рекламы последние новинки кино, игр, сериалов и прочего у нас, на Rutor.in. Не нужно использовать прокси, чтобы зайти на рутор, достаточно воспользоваться нашим ресурсом. Все новые фильмы, игры, сериалы, книги и музыка за 2013 и 2014 годы через торрент бесплатно. Скачивайте фильмы в хорошем качестве, игры для пк, xbox, playstation без регистрации. У нас вы найдете новые Зарубежные сериалы и Русские сериалы 2013, 2014, 2015 годов. Оставайтесь с нами, качайте любимые фильмы, игры, сериалы, книги и музыку.