img image001 image001 image001 image001 image001 image001 image001 image001 image001 image001 image001 image001 image001 image001 image001

Planets Sun Sun Sun
Статистика раздачи
Автор: PriZraK | Размер: 744.81 МБ | Добавлен: 15 фев 2014
Раздают: 36    Качают: 4
Скачать торрент
Скачать торрент
Описание торрента

СообщениеДобавлено: 15 фев 2014 


#77
Страна: СССР
Производство: Студия Горького
Жанр: комедия, семейный
Год выпуска: 1986
Продолжительность: 01:10:24

Перевод: не требуется
Оригинальная аудиодорожка: русский
Cубтитры: нет

Режиссер: Владимир Грамматиков

В ролях:
Сергей Проханов, Людмила Шагалова, Елизавета Уварова, Марина Матвеенко, Сергей Бачурский, Валерий Кисленко, Феликс Кроль, Вадим Александров, Надежда Самсонова, Александр Сажин, Валентин Брылеев, Геннадий Ялович, Ольга Григорьева, Клавдия Козленкова, Леонид Трутнев, Александра Панова, Наталья Харахорина, Артур Берзиньш, Вячеслав Субачев, дети - Максим Топпер, Олег Корхин, Андрюша Пискунов, Дима Винаров, Катя Николаи, Антон Лещинский, Аня Мищенко, Костя Левин, Дима Дашевский, Света Левина, Саша Чирва, Кристина Девитт, Марина Торчинская, Таня и Наташа Томышевы, Владик Воронченко, Володя Пучков, Алеша Банник, Сережа Клоков...

Описание:
Молодой человек, лоботряс-допризывник Кеша Четвергов после окончания школы никак не может найти себе дело по душе, не способен он надолго задержаться ни на одной работе. (Да и к чему задерживаться, если скоро в армию?) Ну не хочет Кешка превращаться во взрослого человека! И вот к его проблеме подключились общественность ЖЭКа, участковый Евсеев и заведующая детским садом Марина Борисовна, обнаружившая у Четвергова талант воспитателя. Кеша становится объектом смелого эксперимента: его берут на работу в детский сад в качестве...ночной няни. Как говорится, талант не спрячешь!





Исходник: DVD5 R5
Тип релиза: DVDRip-AVC
Контейнер: MKV

Видео: 696->1006x428 (2,35:1), 25 fps, H264 ~ 1030 kbps avg, 0.138 bit/pixel
Аудио: 48 kHz, Dolby AC3 5.1, 448 kbps
Общее
Полное имя : Usatyy.nyan.1977.DVDRip-AVC_[Youtracker]_by_AVP.mkv
Формат : Matroska
Версия формата : Version 2
Размер файла : 745 Мбайт
Продолжительность : 1 ч. 10 м.
Общий поток : 1479 Кбит/сек
Дата кодирования : UTC 2013-09-26 17:39:24
Программа кодирования : mkvmerge v6.1.0 ('Old Devil') built on Mar 4 2013 09:10:42
Библиотека кодирования : libebml v1.3.0 + libmatroska v1.4.0

Видео
Идентификатор : 1
Формат : AVC
Формат/Информация : Advanced Video Codec
Профиль формата : High@L4.1
Параметр CABAC формата : Да
Параметр ReFrames формата : 11 кадров
Идентификатор кодека : V_MPEG4/ISO/AVC
Продолжительность : 1 ч. 10 м.
Битрейт : 1030 Кбит/сек
Ширина : 696 пикселей
Высота : 428 пикселей
Соотношение сторон : 2,35:1
Частота кадров : 25,000 кадров/сек
Цветовое пространство : YUV
Субдискретизация насыщенности : 4:2:0
Битовая глубина : 8 бит
Тип развёртки : Прогрессивная
Бит/(Пиксели*Кадры) : 0.138
Размер потока : 504 Мбайт (68%)
Библиотека кодирования : x264 core 138 r2356 a1d3d17
Настройки программы : cabac=1 / ref=11 / deblock=1:-2:-1 / analyse=0x3:0x113 / me=umh / subme=9 / psy=1 / psy_rd=1.00:0.15 / mixed_ref=1 / me_range=32 / chroma_me=1 / trellis=1 / 8x8dct=1 / cqm=0 / deadzone=21,11 / fast_pskip=0 / chroma_qp_offset=-3 / threads=3 / lookahead_threads=1 / sliced_threads=0 / nr=0 / decimate=0 / interlaced=0 / bluray_compat=0 / constrained_intra=0 / bframes=8 / b_pyramid=2 / b_adapt=2 / b_bias=0 / direct=3 / weightb=1 / open_gop=0 / weightp=2 / keyint=250 / keyint_min=25 / scenecut=40 / intra_refresh=0 / rc_lookahead=60 / rc=2pass / mbtree=1 / bitrate=1030 / ratetol=1.0 / qcomp=0.60 / qpmin=0 / qpmax=69 / qpstep=4 / cplxblur=20.0 / qblur=0.5 / ip_ratio=1.40 / aq=1:1.00
Default : Да
Forced : Нет

Аудио
Идентификатор : 2
Формат : AC-3
Формат/Информация : Audio Coding 3
Расширение режима : CM (complete main)
Идентификатор кодека : A_AC3
Продолжительность : 1 ч. 10 м.
Вид битрейта : Постоянный
Битрейт : 448 Кбит/сек
Каналы : 6 каналов
Расположение каналов : Front: L C R, Side: L R, LFE
Частота : 48,0 КГц
Битовая глубина : 16 бит
Метод сжатия : С потерями
Задержка видео : 382 мс.
Размер потока : 226 Мбайт (30%)
Default : Да
Forced : Нет





   Похожие торренты   Торрент   Размер 
В этой теме нет новых непрочитанных сообщений. Усатый нянь (1977) DVDRip от New-Team

66 | 11

743.98 МБ

В этой теме нет новых непрочитанных сообщений. Усатый нянь (1977) DVDRip от ExKinoRay

166 | 16

1.37 ГБ

В этой теме нет новых непрочитанных сообщений. Усатый нянь (1977) DVDRip от Alekxandr48

15 | 3

701.18 МБ

В этой теме нет новых непрочитанных сообщений. Усатый нянь (1977) DVDRip-AVC от ExKinoRay

626 | 36

1.45 ГБ

В этой теме нет новых непрочитанных сообщений. Усатый нянь (1977) DVD5 by гаврила

25 | 3

3.5 ГБ

В этой теме нет новых непрочитанных сообщений. Том и Джерри: Трепещи, Усатый! / Tom and Jerry in Shiver Me Whiskers (2006) DVDRip от slevin111

40 | 5

698 МБ

В этой теме нет новых непрочитанных сообщений. Сумка инкассатора (1977) DVDRip-AVC от New-Team

23 | 6

744.48 МБ




Вы не можете начинать темы
Вы не можете отвечать на сообщения
Вы не можете редактировать свои сообщения
Вы не можете удалять свои сообщения
Вы не можете добавлять вложения

Перейти:  
Для Мосгорсуда, Роскомнадзора и рекламодателей: mosgorsud-torrent[собачка]yandex.ru
 Вход
ppkBB3cker v.2 © 2008-2014 @ PPK
[ Time : 17.449s | 13 Queries | GZIP : Off ]
CGP output time : 0.028s | 5 Queries | GZIP : Off

Торрент трекер RUTOR.IN, Не можете зайти на rutor.org? Какой новый адрес рутор? Какое зеркало рутор? Не работает rutor.org и зеркала? Тогда наш торрент специально для вас. Rutor.in неофициальное зеркало rutor. В случае если у Вас заблокирован rutor или вдруг Вы не можете на него зайти, то Вы без труда сможете скачать бесплатно и без рекламы последние новинки кино, игр, сериалов и прочего у нас, на Rutor.in. Не нужно использовать прокси, чтобы зайти на рутор, достаточно воспользоваться нашим ресурсом. Все новые фильмы, игры, сериалы, книги и музыка за 2013 и 2014 годы через торрент бесплатно. Скачивайте фильмы в хорошем качестве, игры для пк, xbox, playstation без регистрации. У нас вы найдете новые Зарубежные сериалы и Русские сериалы 2013, 2014, 2015 годов. Оставайтесь с нами, качайте любимые фильмы, игры, сериалы, книги и музыку.