img image001 image001 image001 image001 image001 image001 image001 image001 image001 image001 image001 image001 image001 image001 image001

Planets Sun Sun Sun
Статистика раздачи
Автор: PriZraK | Размер: 2.2 ГБ | Добавлен: 15 фев 2014
Раздают: 382    Качают: 31
Скачать торрент
Скачать торрент
Описание торрента

СообщениеДобавлено: 15 фев 2014 




Информация о фильме
Название: Старый Новый год
Жанр: сатирическая комедия
Год выпуска: 1980
Режиссеры: Олег Ефремов, Наум Ардашников
В ролях: Вячеслав Невинный, Александр Калягин, Ксения Минина, Ирина Мирошниченко, Пётр Щербаков, Георгий Бурков, Евгений Евстигнеев, Владимир Трошин, Борис Щербаков, Евгения Ханаева, Анастасия Немоляева, Валентин Карманов, Виктор Петров, Валерия Дементьева, Татьяна Забродина, Лилия Журкина (Евстигнеева), Марина Добровольская, Вячеслав Степанов, Наталья Назарова, Александр Горбачёв, Антон Макаров, Павел Фетисов, Татьяна и Сергей Никитины

Описание:

Канун старого Нового года. Две семьи — представители рабочего класса (Себейкины) и интеллигенции (Полуорловы) справляют новоселье. Пётр Полуорлов возвращается вечером домой, где всё готово для праздника, в плохом расположении духа. Он разочарован в жизни и во всём, чего он добился. Материальные блага и обустроенная квартира — это не то, ради чего он жил. Жена и родственники не понимают, почему он вдруг решил выбросить из квартиры на лестничную площадку мебель, телевизор и пианино. Пётр Себейкин тоже не находит общего языка с родными. Он трудился всю жизнь, стремился к благополучию и достатку в семье, но всё это вдруг оказывается ни к чему. И на следующее после обильного возлияния утро недовольные жизнью мужья уходят из дома...



Доп. информация: По одноименной пьесе Михаила Рощина.
Сценарий: Михаил Рощин
Операторы: Наум Ардашников, Григорий Шпаклер
Художники: Борис Бланк, Владимир Фабриков
Композитор: Сергей Никитин
Стихи: Борис Пастернак
Вокал: Ирина Мирошниченко ("Элегия"), Сергей Никитин ("Снег идет"), Татьяна и Сергей Никитины ("Весеннее танго")
Ограничения на просмотр: для любой зрительской аудитории

После успешной инсценировки во МХАТе (постановка Олега Ефремова) пьеса Михаила Рощина, почти с тем же актёрским составом, была экранизирована на "Мосфильме". Одна из наиболее значительных работ в творчестве Наума Ардашникова.
Планировка квартир Себейкиных и Полуорловых никак не соответствует архитектуре того дома, в котором живут эти семьи (его внешний вид несколько раз можно видеть в фильме).
В фильме не показано, как Пети — главные герои — встретились и решили отправиться в баню.
В бане действие происходит вокруг женской статуи — той самой «Прасковьи Тулуповой», которую граф Калиостро «оживляет» в фильме «Формула любви» (1984). До этого она же украшала рабочее место товарища Бубликова в фильме «Служебный роман» (1977), находилась за спиной дежурной по этажу гостиницы в фильме «Вечерний лабиринт» (1980), затем стояла в приёмной Вассы Железновой в фильме «Васса» (1983).
В фильме впервые прозвучала песня Сергея Никитина «Снег идёт» на стихи Бориса Пастернака, в которых упоминается старый Новый год.


За свою кинокарьеру народный артист СССР Вячеслав Невинный снялся более чем в 60 фильмах. Став в 1959 году актером МХАТ имени Горького, ни разу не изменил ему и прослужил в этом театре 50 лет. Женился один раз и на всю жизнь - на актрисе Нине Гуляевой. В 1960-1980-е годы регулярно снимался, причем очень удачно. С начала 1990-х годов снимался всё реже. Со здоровьем у Вячеслава Михайловича начались проблемы еще в молодости. В первый раз его положили в больницу незадолго до окончания института. Начали лечить гормонами. На фоне этого лечения Невинный резко прибавил в весе. До этого он был очень худым. Актер сильно переживал свою полноту. Его преследовали и другие несчастья. Как-то на него наехала в собственном гараже машина, дав задний ход прямо ему на ноги. После перенесенных операций одна нога Невинного была набита железом. В другой раз артист шел по сцене и провалился в люк с высоты второго этажа. Сильно разбился и чудом остался жив. У него были ушиблены сердце, селезенка, печень. Долго лежал в больнице. Врачи его вытащили, можно сказать, с того света. Позже обнаружили глаукому, затем лечили колени, а потом начался диабет. В 2003 году актер снова попал в больницу. Ноги болели всё сильнее, и он уже не мог передвигаться. Больше года провел на больничных койках. Там же встретил и свое семидесятилетие. После серии операций врачам пришлось ампутировать актеру левую ногу до колена. Он заново учился ходить. Но болезнь вновь преподнесла страшный удар. Гангрена поразила вторую ногу. Пришлось ампутировать и ее. Вячеслав Невинный ушёл из жизни 31 мая 2009 года в своей квартире на Тверской улице в Москве. У него остановилось сердце. Похоронили актера на Троекуровском кладбище, хотя Олег Табаков и Александр Калягин обращались к тогдашнему мэру с просьбой выделить участок для народного артиста СССР на Новодевичьем...
Страна: СССР
Продолжительность: 01:09:24 + 01:03:13
Перевод: не требуется

Файл
Качество видео: SATRip
Формат видео: AVI
Видео:
1 серия - 704x528 (1.33:1), 25 fps, XviD 64, 2170 kbps avg, 0.23 bit/pixel
2 серия - 704x528 (1.33:1), 25 fps, XviD 64, 2170 kbps avg, 0.23 bit/pixel
Аудио: 48 kHz, AC3 Dolby Digital, 2/0 (L,R) ch, 192 kbps


Полное имя : Stary Novy godPart 1.avi
Формат : AVI
Формат/Информация : Audio Video Interleave
Размер файла : 1,15 Гбайт
Продолжительность : 1 ч. 9 м.
Общий поток : 2373 Кбит/сек
Программа кодирования : VirtualDubMod 1.5.10.3 (build 2550/release)
Библиотека кодирования : VirtualDubMod build 2550/release
Видео
Идентификатор : 0
Формат : MPEG-4 Visual
Профиль формата : Advanced Simple@L5
Параметр BVOP формата : 2
Параметр QPel формата : Нет
Параметр GMC формата : Без точки перехода
Параметр матрицы формата : Выборочная
Идентификатор кодека : XVID
Идентификатор кодека/Подсказка : XviD
Продолжительность : 1 ч. 9 м.
Битрейт : 2171 Кбит/сек
Ширина : 704 пикселя
Высота : 528 пикселей
Соотношение сторон : 4:3
Частота кадров : 25,000 кадров/сек
Цветовое пространство : YUV
Субдискретизация насыщенности : 4:2:0
Битовая глубина : 8 бит
Тип развёртки : Прогрессивная
Метод сжатия : С потерями
Бит/(Пиксели*Кадры) : 0.234
Размер потока : 1,05 Гбайт (91%)
Библиотека кодирования : XviD 64
Аудио
Идентификатор : 1
Формат : AC-3
Формат/Информация : Audio Coding 3
Расширение режима : CM (complete main)
Параметр Endianness формата : Big
Идентификатор кодека : 2000
Продолжительность : 1 ч. 9 м.
Вид битрейта : Постоянный
Битрейт : 192 Кбит/сек
Каналы : 2 канала
Расположение каналов : Front: L R
Частота : 48,0 КГц
Битовая глубина : 16 бит
Метод сжатия : С потерями
Размер потока : 95,3 Мбайт (8%)
Выравнивание : Разделение по промежуткам
Продолжительность промежутка : 40 мс. (1,00 видеокадр)
Время предзагрузки промежутка : 500 мс.
Полное имя : Stary Novy godPart 2.avi
Формат : AVI
Формат/Информация : Audio Video Interleave
Размер файла : 1,05 Гбайт
Продолжительность : 1 ч. 3 м.
Общий поток : 2373 Кбит/сек
Программа кодирования : VirtualDubMod 1.5.10.3 (build 2550/release)
Библиотека кодирования : VirtualDubMod build 2550/release
Видео
Идентификатор : 0
Формат : MPEG-4 Visual
Профиль формата : Advanced Simple@L5
Параметр BVOP формата : 2
Параметр QPel формата : Нет
Параметр GMC формата : Без точки перехода
Параметр матрицы формата : Выборочная
Идентификатор кодека : XVID
Идентификатор кодека/Подсказка : XviD
Продолжительность : 1 ч. 3 м.
Битрейт : 2171 Кбит/сек
Ширина : 704 пикселя
Высота : 528 пикселей
Соотношение сторон : 4:3
Частота кадров : 25,000 кадров/сек
Цветовое пространство : YUV
Субдискретизация насыщенности : 4:2:0
Битовая глубина : 8 бит
Тип развёртки : Прогрессивная
Метод сжатия : С потерями
Бит/(Пиксели*Кадры) : 0.234
Размер потока : 982 Мбайт (91%)
Библиотека кодирования : XviD 64
Аудио
Идентификатор : 1
Формат : AC-3
Формат/Информация : Audio Coding 3
Расширение режима : CM (complete main)
Параметр Endianness формата : Big
Идентификатор кодека : 2000
Продолжительность : 1 ч. 3 м.
Вид битрейта : Постоянный
Битрейт : 192 Кбит/сек
Каналы : 2 канала
Расположение каналов : Front: L R
Частота : 48,0 КГц
Битовая глубина : 16 бит
Метод сжатия : С потерями
Размер потока : 86,8 Мбайт (8%)
Выравнивание : Разделение по промежуткам
Продолжительность промежутка : 40 мс. (1,00 видеокадр)
Время предзагрузки промежутка : 500 мс.











Спасибо :)



   Похожие торренты   Торрент   Размер 
В этой теме нет новых непрочитанных сообщений. XXII Летние Олимпийские Игры. 1980 год. Москва. Церемония открытия (1980) SATRip

58 | 76

1.46 ГБ

В этой теме нет новых непрочитанных сообщений. XXII Летние Олимпийские Игры. 1980 год. Москва. Церемония закрытия (1980) SATRip

31 | 8

1.05 ГБ

В этой теме нет новых непрочитанных сообщений. Красный райдинг 1980 / Red Riding 1980 (2009) BDRip 720p от Brazzass

130 | 61

4.02 ГБ

В этой теме нет новых непрочитанных сообщений. Камила (1980) SATRip

3 | 14

1.37 ГБ

В этой теме нет новых непрочитанных сообщений. Ключ (1980) SATRip

24 | 4

1.57 ГБ

В этой теме нет новых непрочитанных сообщений. Красный райдинг: 1980 / Red Riding: 1980 (2009) PDTVRip

0 | 2

780.1 МБ

В этой теме нет новых непрочитанных сообщений. Факт (1980) SATRip от New-Team

19 | 6

745.26 МБ




Вы не можете начинать темы
Вы не можете отвечать на сообщения
Вы не можете редактировать свои сообщения
Вы не можете удалять свои сообщения
Вы не можете добавлять вложения

Перейти:  
Для Мосгорсуда, Роскомнадзора и рекламодателей: mosgorsud-torrent[собачка]yandex.ru
 Вход
ppkBB3cker v.2 © 2008-2014 @ PPK
[ Time : 0.531s | 14 Queries | GZIP : Off ]

Торрент трекер RUTOR.IN, Не можете зайти на rutor.org? Какой новый адрес рутор? Какое зеркало рутор? Не работает rutor.org и зеркала? Тогда наш торрент специально для вас. Rutor.in неофициальное зеркало rutor. В случае если у Вас заблокирован rutor или вдруг Вы не можете на него зайти, то Вы без труда сможете скачать бесплатно и без рекламы последние новинки кино, игр, сериалов и прочего у нас, на Rutor.in. Не нужно использовать прокси, чтобы зайти на рутор, достаточно воспользоваться нашим ресурсом. Все новые фильмы, игры, сериалы, книги и музыка за 2013 и 2014 годы через торрент бесплатно. Скачивайте фильмы в хорошем качестве, игры для пк, xbox, playstation без регистрации. У нас вы найдете новые Зарубежные сериалы и Русские сериалы 2013, 2014, 2015 годов. Оставайтесь с нами, качайте любимые фильмы, игры, сериалы, книги и музыку.