img image001 image001 image001 image001 image001 image001 image001 image001 image001 image001 image001 image001 image001 image001 image001

Planets Sun Sun Sun
Статистика раздачи
Автор: PriZraK | Размер: 1.46 ГБ | Добавлен: 15 фев 2014
Раздают: 50    Качают: 6
Скачать торрент
Скачать торрент
Описание торрента

СообщениеДобавлено: 15 фев 2014 


#77
Страна: СССР
Производство: Мосфильм
Жанр: мелодрама, комедия
Год выпуска: 1975
Продолжительность: 01:31:39
Перевод: не требуется
Оригинальная аудиодорожка: русский
Cубтитры: нет

Режиссер: Леонид Гайдай

В ролях:
Михаил Пуговкин, Нина Гребешкова, Вячеслав Невинный, Михаил Светин, Олег Даль, Светлана Крючкова, Михаил Кокшенов, Наталья Селезнёва, Евгений Жариков, Лариса Ерёмина, Леонид Куравлёв, Валентина Теличкина, Людмила Шагалова, Георгий Вицин, Раднэр Муратов, Лев Поляков, Савелий Крамаров, Светлана Харитонова, Сергей Филиппов, Наталья Крачковская, Игорь Ясулович, Эве Киви, Готлиб Ронинсон, Анатолий Обухов, Нина Крачковская, Владимир Гуляев, Муза Крепкогорская, Георгий Юматов, Клара Румянова...
Фильм состоит из трёх новелл по рассказам Михаила Зощенко:
Преступление и наказание СССР конца 1920 годов. Будучи вызванным к прокурору, главный герой, живущий на нетрудовые доходы, небезосновательно полагает, что вызов этот не принесёт ничего хорошего. Эти же мысли посещают его шурина, который, дабы предупредить неизбежную конфискацию имущества, срочно продаёт всё, что было нажито «непосильным» трудом...
Забавное приключение Уходя в выходной день якобы на работу, а на самом деле - к любовнице, иногда сложно себе представить, что муж любовницы вполне может оказаться любовником подруги любовницы, а сосед подруги любовницы по коммуналке — любовником твоей собственной жены...
Свадебное происшествие Молодой человек, сделавший предложение некоей девице, приходит на собственную свадьбу, где никак не может узнать свою невесту — до этого они встречались только на улице, и он запомнил её в зимней одежде...





Исходник: DVD5 R5
Тип релиза: DVDRip-AVC
Контейнер: MKV

Видео: 712->756x556 (4:3), 25 fps, H264 ~ 1825 kbps avg, 0.184 bit/pixel
Аудио: 48 kHz, Dolby AC3 5.1, 448 kbps
Общее
Полное имя : Ne.mozhet.byt!1975.DVDRip-AVC_[Youtracker]_by_AVP Studio.mkv
Формат : Matroska
Версия формата : Version 2
Размер файла : 1,46 Гбайт
Продолжительность : 1 ч. 31 м.
Общий поток : 2275 Кбит/сек
Дата кодирования : UTC 2013-09-29 22:28:22
Программа кодирования : mkvmerge v6.1.0 ('Old Devil') built on Mar 4 2013 09:10:42
Библиотека кодирования : libebml v1.3.0 + libmatroska v1.4.0

Видео
Идентификатор : 1
Формат : AVC
Формат/Информация : Advanced Video Codec
Профиль формата : High@L4.1
Параметр CABAC формата : Да
Параметр ReFrames формата : 10 кадров
Идентификатор кодека : V_MPEG4/ISO/AVC
Продолжительность : 1 ч. 31 м.
Битрейт : 1825 Кбит/сек
Ширина : 712 пикселей
Высота : 556 пикселей
Соотношение сторон : 4:3
Соотношение сторон в оригинале : 4:3
Частота кадров : 25,000 кадров/сек
Цветовое пространство : YUV
Субдискретизация насыщенности : 4:2:0
Битовая глубина : 8 бит
Тип развёртки : Прогрессивная
Бит/(Пиксели*Кадры) : 0.184
Размер потока : 1,14 Гбайт (78%)
Библиотека кодирования : x264 core 138 r2356 a1d3d17
Настройки программы : cabac=1 / ref=10 / deblock=1:-2:-1 / analyse=0x3:0x113 / me=umh / subme=9 / psy=1 / psy_rd=1.00:0.15 / mixed_ref=1 / me_range=32 / chroma_me=1 / trellis=1 / 8x8dct=1 / cqm=0 / deadzone=21,11 / fast_pskip=0 / chroma_qp_offset=-3 / threads=3 / lookahead_threads=1 / sliced_threads=0 / nr=0 / decimate=0 / interlaced=0 / bluray_compat=0 / constrained_intra=0 / bframes=8 / b_pyramid=2 / b_adapt=2 / b_bias=0 / direct=3 / weightb=1 / open_gop=0 / weightp=2 / keyint=250 / keyint_min=25 / scenecut=40 / intra_refresh=0 / rc_lookahead=60 / rc=2pass / mbtree=1 / bitrate=1825 / ratetol=1.0 / qcomp=0.60 / qpmin=0 / qpmax=69 / qpstep=4 / cplxblur=20.0 / qblur=0.5 / ip_ratio=1.40 / aq=1:1.00
Default : Да
Forced : Нет

Аудио
Идентификатор : 2
Формат : AC-3
Формат/Информация : Audio Coding 3
Расширение режима : CM (complete main)
Идентификатор кодека : A_AC3
Продолжительность : 1 ч. 31 м.
Вид битрейта : Постоянный
Битрейт : 448 Кбит/сек
Каналы : 6 каналов
Расположение каналов : Front: L C R, Side: L R, LFE
Частота : 48,0 КГц
Битовая глубина : 16 бит
Метод сжатия : С потерями
Размер потока : 294 Мбайт (20%)
Default : Да
Forced : Нет





   Похожие торренты   Торрент   Размер 
В этой теме нет новых непрочитанных сообщений. Это мы не проходили (1975) DVDRip от New-Team

545 | 31

1.45 ГБ

В этой теме нет новых непрочитанных сообщений. Порт (1975) DVDRip-AVC от New-Team

15 | 5

744.62 МБ

В этой теме нет новых непрочитанных сообщений. Старший сын (1975) DVDRip от New-Team

277 | 28

2.19 ГБ

В этой теме нет новых непрочитанных сообщений. Порт (1975) DVDRip от New-Team

12 | 4

744.79 МБ

В этой теме нет новых непрочитанных сообщений. Старший сын (1975) DVDRip-AVC от New-Team

53 | 20

2.19 ГБ

В этой теме нет новых непрочитанных сообщений. Не может быть! (1975) DVDRip от New Team

889 | 24

1.45 ГБ

В этой теме нет новых непрочитанных сообщений. Побег / Breakout (1975) DVDRip от New-Team

98 | 13

745.1 МБ




Вы не можете начинать темы
Вы не можете отвечать на сообщения
Вы не можете редактировать свои сообщения
Вы не можете удалять свои сообщения
Вы не можете добавлять вложения

Перейти:  
Для Мосгорсуда, Роскомнадзора и рекламодателей: mosgorsud-torrent[собачка]yandex.ru
 Вход
ppkBB3cker v.2 © 2008-2014 @ PPK
[ Time : 0.038s | 14 Queries | GZIP : Off ]

Торрент трекер RUTOR.IN, Не можете зайти на rutor.org? Какой новый адрес рутор? Какое зеркало рутор? Не работает rutor.org и зеркала? Тогда наш торрент специально для вас. Rutor.in неофициальное зеркало rutor. В случае если у Вас заблокирован rutor или вдруг Вы не можете на него зайти, то Вы без труда сможете скачать бесплатно и без рекламы последние новинки кино, игр, сериалов и прочего у нас, на Rutor.in. Не нужно использовать прокси, чтобы зайти на рутор, достаточно воспользоваться нашим ресурсом. Все новые фильмы, игры, сериалы, книги и музыка за 2013 и 2014 годы через торрент бесплатно. Скачивайте фильмы в хорошем качестве, игры для пк, xbox, playstation без регистрации. У нас вы найдете новые Зарубежные сериалы и Русские сериалы 2013, 2014, 2015 годов. Оставайтесь с нами, качайте любимые фильмы, игры, сериалы, книги и музыку.