img image001 image001 image001 image001 image001 image001 image001 image001 image001 image001 image001 image001 image001 image001 image001

Planets Sun Sun Sun
Статистика раздачи
Автор: PriZraK | Размер: 743.25 МБ | Добавлен: 15 фев 2014
Раздают: 114    Качают: 15
Скачать торрент
Скачать торрент
Описание торрента

СообщениеДобавлено: 15 фев 2014 




Год выпуска: 1975
Страна: СССР

Жанр: мелодрама, комедия
Продолжительность: 01:31:39
Перевод: Не требуется

Режиссер: Леонид Гайдай
Сценарий: Владлен Бахнов, Леонид Гайдай, Михаил Зощенко
Продюсер: Эрик Вайсберг
Оператор: Сергей Полуянов
Композитор: Александр Зацепин

В ролях: Михаил Пуговкин (завмаг Горбушкин (новелла «Преступление и наказание»)), Нина Гребешкова (Анна, жена Горбушкина (новелла «Преступление и наказание»)), Вячеслав Невинный (брат жены Горбушкина (новелла «Преступление и наказание»)), Михаил Светин (Виталий Борисович, сосед Горбушкина (новелла «Преступление и наказание»)), Наталья Селезнёва (Татьяна, жена Анатолия (новелла «Забавное приключение»)), Олег Даль (Анатолий Барыгин-Амурский, муж Татьяны (новелла «Забавное приключение»)), Светлана Крючкова (Зинаида, жена Николая (новелла «Забавное приключение»)), Евгений Жариков (Николай, муж Зинаиды (новелла «Забавное приключение»)), Лариса Еремина (Софья, подруга Зинаиды (новелла «Забавное приключение»)), Михаил Кокшенов (сосед Софьи (новелла «Забавное приключение»)), Леонид Куравлёв (Владимир Завитушкин, жених (новелла «Свадебное происшествие»)), Валентина Теличкина (Катерина, невеста (новелла «Свадебное происшествие»))



Мировая премьера: 23 октября 1975
Релиз на DVD: 11 января 2011, «Парадиз Медиа»


Описание: Фильм включает три новеллы о негативных явлениях провинциальной жизни молодой страны Советов: тупости, пьянстве, стяжательстве, бездуховности - всем том, что и сейчас существует благополучно и повсеместно.


Качество: DVDRip | Sample
Формат: AVI
Исходник: DVD5
Видео: 704x512 (1.38:1), 25 fps, XviD build 65 ~996 kbps avg, 0.11 bit/pixel
Аудио: 48 kHz, MPEG Layer 3, 2 ch, ~128.00 kbps avg


    Занимает по посещаемости 46-е место среди отечественных фильмов за всю историю советского кинопроката.


General
Complete name : E:ФильмыNe_Mojet_bit_1975_DVDRip745_[youtracker].avi
Format : AVI
Format/Info : Audio Video Interleave
File size : 743 MiB
Duration : 1h 31mn
Overall bit rate : 1 134 Kbps
Writing application : VirtualDubMod 1.5.10.3 | www.virtualdub-fr.org || (build 2550/release)
Writing library : VirtualDubMod build 2550/release

Video
ID : 0
Format : MPEG-4 Visual
Format profile : Advanced Simple@L5
Format settings, BVOP : 2
Format settings, QPel : No
Format settings, GMC : No warppoints
Format settings, Matrix : Custom
Codec ID : XVID
Codec ID/Hint : XviD
Duration : 1h 31mn
Bit rate : 996 Kbps
Width : 704 pixels
Height : 512 pixels
Display aspect ratio : 1.375
Frame rate : 25.000 fps
Color space : YUV
Chroma subsampling : 4:2:0
Bit depth : 8 bits
Scan type : Progressive
Compression mode : Lossy
Bits/(Pixel*Frame) : 0.111
Stream size : 653 MiB (88%)
Writing library : XviD 65

Audio
ID : 1
Format : MPEG Audio
Format version : Version 1
Format profile : Layer 3
Codec ID : 55
Codec ID/Hint : MP3
Duration : 1h 31mn
Bit rate mode : Constant
Bit rate : 128 Kbps
Channel(s) : 2 channels
Sampling rate : 48.0 KHz
Compression mode : Lossy
Stream size : 83.9 MiB (11%)
Alignment : Aligned on interleaves
Interleave, duration : 40 ms (1.00 video frame)
Interleave, preload duration : 504 ms
Writing library : LAME3.99r
Encoding settings : -m s -V 4 -q 2 -lowpass 17 -b 128




   Похожие торренты   Торрент   Размер 
В этой теме нет новых непрочитанных сообщений. Это мы не проходили (1975) DVDRip от New-Team

545 | 31

1.45 ГБ

В этой теме нет новых непрочитанных сообщений. Старший сын (1975) DVDRip-AVC от New-Team

54 | 31

2.19 ГБ

В этой теме нет новых непрочитанных сообщений. Порт (1975) DVDRip-AVC от New-Team

24 | 7

744.62 МБ

В этой теме нет новых непрочитанных сообщений. Порт (1975) DVDRip от New-Team

16 | 6

744.79 МБ

В этой теме нет новых непрочитанных сообщений. Старший сын (1975) DVDRip от New-Team

290 | 33

2.19 ГБ

В этой теме нет новых непрочитанных сообщений. Не может быть! (1975) DVDRip от New Team

899 | 24

1.45 ГБ

В этой теме нет новых непрочитанных сообщений. Не может быть! (1975) DVDRip-AVC от New-Team

57 | 8

1.46 ГБ




Вы не можете начинать темы
Вы не можете отвечать на сообщения
Вы не можете редактировать свои сообщения
Вы не можете удалять свои сообщения
Вы не можете добавлять вложения

Перейти:  
Для Мосгорсуда, Роскомнадзора и рекламодателей: mosgorsud-torrent[собачка]yandex.ru
 Вход
ppkBB3cker v.2 © 2008-2014 @ PPK
[ Time : 0.040s | 14 Queries | GZIP : Off ]

Торрент трекер RUTOR.IN, Не можете зайти на rutor.org? Какой новый адрес рутор? Какое зеркало рутор? Не работает rutor.org и зеркала? Тогда наш торрент специально для вас. Rutor.in неофициальное зеркало rutor. В случае если у Вас заблокирован rutor или вдруг Вы не можете на него зайти, то Вы без труда сможете скачать бесплатно и без рекламы последние новинки кино, игр, сериалов и прочего у нас, на Rutor.in. Не нужно использовать прокси, чтобы зайти на рутор, достаточно воспользоваться нашим ресурсом. Все новые фильмы, игры, сериалы, книги и музыка за 2013 и 2014 годы через торрент бесплатно. Скачивайте фильмы в хорошем качестве, игры для пк, xbox, playstation без регистрации. У нас вы найдете новые Зарубежные сериалы и Русские сериалы 2013, 2014, 2015 годов. Оставайтесь с нами, качайте любимые фильмы, игры, сериалы, книги и музыку.