img image001 image001 image001 image001 image001 image001 image001 image001 image001 image001 image001 image001 image001 image001 image001

Planets Sun Sun Sun
Статистика раздачи
Автор: PriZraK | Размер: 744.48 МБ | Добавлен: 15 фев 2014
Раздают: 23    Качают: 6
Скачать торрент
Скачать торрент
Описание торрента

СообщениеДобавлено: 15 фев 2014 


#77
Страна: СССР
Производство: Ленфильм
Жанр: детектив
Год выпуска: 1977
Продолжительность: 01:28:00

Перевод: не требуется
Оригинальная аудиодорожка: русский
Cубтитры: нет

Режиссер: Аугуст Балтрушайтис

В ролях:
Георгий Бурков, Донатас Банионис, Елена Наумкина, Витаутас Томкус, Наталья Фатеева, Анатолий Солоницын, Михаил Светин...

Описание:
Недалеко от аэропорта найдена сгоревшая машина с двумя инкассаторами, перевозившая выручку из аэропорта, но сумки с деньгами нет. За дело берутся два опытных следователя: Санин и Туляков, а в помощь им дают молодую девушку — практикантку.
Выяснилось, что один из инкассаторов недавно покупал авиабилет в Тбилиси по фальшивому паспорту на другую фамилию. Кроме того, в машине был применен нервно-паралитический газ…





Исходник: DVD5 R5
Тип релиза: DVDRip-AVC
Контейнер: MKV

Видео: 688->738x448 (1,645:1), 25 fps, H264 ~ 1053 kbps avg, 0.137 bit/pixel
Аудио: 48 kHz, Dolby AC3 2.0, 128 kbps
Общее
Полное имя : Sumka.inkassatora.1977.DVDRip-AVC_[Youtracker]_by_AVP Studio.mkv
Формат : Matroska
Версия формата : Version 2
Размер файла : 744 Мбайт
Продолжительность : 1 ч. 28 м.
Общий поток : 1183 Кбит/сек
Дата кодирования : UTC 2013-10-01 11:06:58
Программа кодирования : mkvmerge v6.1.0 ('Old Devil') built on Mar 4 2013 09:10:42
Библиотека кодирования : libebml v1.3.0 + libmatroska v1.4.0

Видео
Идентификатор : 1
Формат : AVC
Формат/Информация : Advanced Video Codec
Профиль формата : High@L4.1
Параметр CABAC формата : Да
Параметр ReFrames формата : 10 кадров
Идентификатор кодека : V_MPEG4/ISO/AVC
Продолжительность : 1 ч. 28 м.
Битрейт : 1053 Кбит/сек
Ширина : 688 пикселей
Высота : 448 пикселей
Соотношение сторон : 1,645
Частота кадров : 25,000 кадров/сек
Цветовое пространство : YUV
Субдискретизация насыщенности : 4:2:0
Битовая глубина : 8 бит
Тип развёртки : Прогрессивная
Бит/(Пиксели*Кадры) : 0.137
Размер потока : 649 Мбайт (87%)
Библиотека кодирования : x264 core 138 r2356 a1d3d17
Настройки программы : cabac=1 / ref=10 / deblock=1:-2:-1 / analyse=0x3:0x113 / me=umh / subme=9 / psy=1 / psy_rd=1.00:0.15 / mixed_ref=1 / me_range=32 / chroma_me=1 / trellis=1 / 8x8dct=1 / cqm=0 / deadzone=21,11 / fast_pskip=0 / chroma_qp_offset=-3 / threads=3 / lookahead_threads=1 / sliced_threads=0 / nr=0 / decimate=0 / interlaced=0 / bluray_compat=0 / constrained_intra=0 / bframes=8 / b_pyramid=2 / b_adapt=2 / b_bias=0 / direct=3 / weightb=1 / open_gop=0 / weightp=2 / keyint=250 / keyint_min=25 / scenecut=40 / intra_refresh=0 / rc_lookahead=60 / rc=2pass / mbtree=1 / bitrate=1053 / ratetol=1.0 / qcomp=0.60 / qpmin=0 / qpmax=69 / qpstep=4 / cplxblur=20.0 / qblur=0.5 / ip_ratio=1.40 / aq=1:1.00
Default : Да
Forced : Нет

Аудио
Идентификатор : 2
Формат : AC-3
Формат/Информация : Audio Coding 3
Расширение режима : CM (complete main)
Идентификатор кодека : A_AC3
Продолжительность : 1 ч. 28 м.
Вид битрейта : Постоянный
Битрейт : 128 Кбит/сек
Каналы : 2 канала
Расположение каналов : Front: L R
Частота : 48,0 КГц
Битовая глубина : 16 бит
Метод сжатия : С потерями
Размер потока : 80,6 Мбайт (11%)
Default : Да
Forced : Нет





   Похожие торренты   Торрент   Размер 
В этой теме нет новых непрочитанных сообщений. Сумка инкассатора (1977) DVDRip от New-Team

5 | 6

742.92 МБ

В этой теме нет новых непрочитанных сообщений. Сумка инкассатора (1977) DVDRip от Киномагия

38 | 23

1.35 ГБ

В этой теме нет новых непрочитанных сообщений. Сумка инкассатора (1977) DVD5

0 | 6

4.31 ГБ

В этой теме нет новых непрочитанных сообщений. Капитан Немо [01-03 из 03] (1977) DVDRip от New-Team

17 | 7

2.18 ГБ

В этой теме нет новых непрочитанных сообщений. Капитан Немо [01-03 из 03] (1977) DVDRip-AVC от New-Team

51 | 9

2.91 ГБ

В этой теме нет новых непрочитанных сообщений. Капитан Немо [01-03 из 03] (1977) DVDRip от New-Team

29 | 4

3.28 ГБ

В этой теме нет новых непрочитанных сообщений. Усатый нянь (1977) DVDRip-AVC от New-Team

36 | 4

744.81 МБ




Вы не можете начинать темы
Вы не можете отвечать на сообщения
Вы не можете редактировать свои сообщения
Вы не можете удалять свои сообщения
Вы не можете добавлять вложения

Перейти:  
Для Мосгорсуда, Роскомнадзора и рекламодателей: mosgorsud-torrent[собачка]yandex.ru
 Вход
ppkBB3cker v.2 © 2008-2014 @ PPK
[ Time : 0.384s | 14 Queries | GZIP : Off ]

Торрент трекер RUTOR.IN, Не можете зайти на rutor.org? Какой новый адрес рутор? Какое зеркало рутор? Не работает rutor.org и зеркала? Тогда наш торрент специально для вас. Rutor.in неофициальное зеркало rutor. В случае если у Вас заблокирован rutor или вдруг Вы не можете на него зайти, то Вы без труда сможете скачать бесплатно и без рекламы последние новинки кино, игр, сериалов и прочего у нас, на Rutor.in. Не нужно использовать прокси, чтобы зайти на рутор, достаточно воспользоваться нашим ресурсом. Все новые фильмы, игры, сериалы, книги и музыка за 2013 и 2014 годы через торрент бесплатно. Скачивайте фильмы в хорошем качестве, игры для пк, xbox, playstation без регистрации. У нас вы найдете новые Зарубежные сериалы и Русские сериалы 2013, 2014, 2015 годов. Оставайтесь с нами, качайте любимые фильмы, игры, сериалы, книги и музыку.