img image001 image001 image001 image001 image001 image001 image001 image001 image001 image001 image001 image001 image001 image001 image001

Planets Sun Sun Sun
Статистика раздачи
Автор: PriZraK | Размер: 7.51 ГБ | Добавлен: 15 фев 2014
Раздают: 67    Качают: 20
Скачать торрент
Скачать торрент
Описание торрента

СообщениеДобавлено: 15 фев 2014 




Информация о фильме
Оригинальное название: В тумане
Год выпуска: 2012
Жанр: Драма, военный, история, ВОВ
Выпущено: Россия, Германия, Нидерланды, Латвия, Беларусь, Belarusfilm, GP Cinema Company, Lemming Film
Режиссер: Сергей Лозница
В ролях: Владимир Свирский, Владислав Абашин, Сергей Колесов, Никита Перемотов, Юлия Пересильд, Кирилл Петров, Дмитрий Колосов, Степан Богданов, Дмитрий Быковский, Влад Иванов, Игорь Хрипунов, Надежда Маркина, Борис Каморзин, Михаил Евланов, Сергей Русскин, Тимофей Трибунцев

О фильме: Действие исторической драмы происходит в 1942 году в оккупированной немцами Белоруссии. Путевого обходчика Сущеню ложно обвиняют в сотрудничестве с оккупантами. Два партизана приезжают на хутор к Сущене, чтобы совершить расправу. В надежде доказать свою невиновность Сущеня пытается сделать моральный выбор в аморальных обстоятельствах.



Файл
Качество: BDRip (720p)
Видео: MPEG-4 AVC, 6098 Кбит/с, 1280x544
Аудио: Русский (AC3, 6 ch, 640 Кбит/с), (DTS, 6 ch, 1510 Кбит/с)
Размер: 7.51 ГБ
Продолжительность: 02:07:45
Язык: Русский [лицензия]
Субтитры: Английские
Общее
Уникальный идентификатор : 180554201847689421783567477142881570311 (0x87D57971C6C2BCB4BEB1283AB0980E07)
Полное имя : D:V tumane 2012 720p BluRay.x264-EA.mkv
Формат : Matroska
Версия формата : Version 2
Размер файла : 7,51 Гбайт
Продолжительность : 2 ч. 7 м.
Общий поток : 8414 Кбит/сек
Название фильма : Sergei Loznitsa-In the Fog (2012)
Дата кодирования : UTC 2013-10-02 08:06:25
Программа кодирования : mkvmerge v6.3.0 ('You can't stop me!') built on Jun 28 2013 20:09:41
Библиотека кодирования : libebml v1.3.0 + libmatroska v1.4.0
Видео
Идентификатор : 1
Формат : AVC
Формат/Информация : Advanced Video Codec
Профиль формата : High@L4.1
Параметр CABAC формата : Да
Параметр ReFrames формата : 12 кадров
Идентификатор кодека : V_MPEG4/ISO/AVC
Продолжительность : 2 ч. 7 м.
Битрейт : 6098 Кбит/сек
Ширина : 1280 пикселей
Высота : 544 пикселя
Соотношение сторон : 2,35:1
Режим частоты кадров : Постоянный
Частота кадров : 24,000 кадра/сек
Цветовое пространство : YUV
Субдискретизация насыщенности : 4:2:0
Битовая глубина : 8 бит
Тип развёртки : Прогрессивная
Бит/(Пиксели*Кадры) : 0.365
Размер потока : 5,44 Гбайт (72%)
Заголовок : -EA
Библиотека кодирования : x264 core 133 r2334 a3ac64b
Настройки программы : cabac=1 / ref=12 / deblock=1:-3:-3 / analyse=0x3:0x113 / me=umh / subme=11 / psy=1 / psy_rd=1.10:0.00 / mixed_ref=1 / me_range=32 / chroma_me=1 / trellis=2 / 8x8dct=1 / cqm=0 / deadzone=21,11 / fast_pskip=0 / chroma_qp_offset=-2 / threads=12 / lookahead_threads=3 / sliced_threads=0 / nr=0 / decimate=0 / interlaced=0 / bluray_compat=0 / constrained_intra=0 / bframes=11 / b_pyramid=2 / b_adapt=2 / b_bias=0 / direct=3 / weightb=1 / open_gop=0 / weightp=2 / keyint=230 / keyint_min=23 / scenecut=40 / intra_refresh=0 / rc_lookahead=50 / rc=crf / mbtree=0 / crf=17.4 / qcomp=0.75 / qpmin=0 / qpmax=69 / qpstep=4 / vbv_maxrate=62500 / vbv_bufsize=78125 / crf_max=0.0 / nal_hrd=none / ip_ratio=1.40 / pb_ratio=1.30 / aq=1:0.75
Язык : Belarusian
Default : Да
Forced : Нет
Основные цвета : BT.709
Характеристики трансфера : BT.709
Коэффициенты матрицы : BT.709
Аудио #1
Идентификатор : 2
Формат : AC-3
Формат/Информация : Audio Coding 3
Расширение режима : CM (complete main)
Параметр Endianness формата : Big
Идентификатор кодека : A_AC3
Продолжительность : 2 ч. 7 м.
Вид битрейта : Постоянный
Битрейт : 640 Кбит/сек
Каналы : 6 каналов
Расположение каналов : Front: L C R, Side: L R, LFE
Частота : 48,0 КГц
Битовая глубина : 16 бит
Метод сжатия : С потерями
Размер потока : 585 Мбайт (8%)
Язык : Russian
Default : Нет
Forced : Нет
Аудио #2
Идентификатор : 3
Формат : DTS
Формат/Информация : Digital Theater Systems
Режим : 16
Параметр Endianness формата : Big
Идентификатор кодека : A_DTS
Продолжительность : 2 ч. 7 м.
Вид битрейта : Постоянный
Битрейт : 1509 Кбит/сек
Каналы : 6 каналов
Расположение каналов : Front: L C R, Side: L R, LFE
Частота : 48,0 КГц
Битовая глубина : 24 бит
Метод сжатия : С потерями
Размер потока : 1,35 Гбайт (18%)
Язык : Russian
Default : Да
Forced : Нет
Текст #1
Идентификатор : 4
Формат : UTF-8
Идентификатор кодека : S_TEXT/UTF8
Идентификатор кодека/Информация : UTF-8 Plain Text
Заголовок : srt
Язык : English
Default : Да
Forced : Нет
Текст #2
Идентификатор : 5
Формат : PGS
Режим смешивания : zlib
Идентификатор кодека : S_HDMV/PGS
Идентификатор кодека/Информация : The same subtitle format used on BDs/HD-DVDs
Заголовок : sup
Язык : English
Default : Нет
Forced : Нет
Меню
00:00:00.000 : en:00:00:00.000
00:05:20.417 : en:00:05:20.417
00:12:42.167 : en:00:12:42.167
00:18:33.583 : en:00:18:33.583
00:23:51.250 : en:00:23:51.250
00:30:00.708 : en:00:30:00.708
00:36:22.708 : en:00:36:22.708
00:42:43.917 : en:00:42:43.917
00:48:50.708 : en:00:48:50.708
00:53:53.458 : en:00:53:53.458
01:01:39.500 : en:01:01:39.500
01:06:59.875 : en:01:06:59.875
01:13:18.792 : en:01:13:18.792
01:18:43.333 : en:01:18:43.333
01:26:28.792 : en:01:26:28.792
01:31:57.583 : en:01:31:57.583
01:37:33.208 : en:01:37:33.208
01:42:12.250 : en:01:42:12.250
01:48:56.000 : en:01:48:56.000
01:55:30.292 : en:01:55:30.292
02:00:45.167 : en:02:00:45.167







   Похожие торренты   Торрент   Размер 
В этой теме нет новых непрочитанных сообщений. В тумане (2012) BDRip 1080p | Лицензия

3 | 4

11.79 ГБ

В этой теме нет новых непрочитанных сообщений. В тумане (2012) DVDRip-AVC от potroks | Лицензия

14 | 2

2.58 ГБ

В этой теме нет новых непрочитанных сообщений. Затерянные в тумане / В тумане / Fogbound (2002) DVDRip от FilmRus | P2

131 | 24

1.37 ГБ

В этой теме нет новых непрочитанных сообщений. В тумане (2012) BDRip от New Team

13 | 7

1.46 ГБ

В этой теме нет новых непрочитанных сообщений. Пейзаж в тумане (1988) BDRip 720p

24 | 3

7.47 ГБ

В этой теме нет новых непрочитанных сообщений. В электрическом тумане / In the Electric Mist (2009) BDRip 720p от NOLIMITS-TEAM

8 | 9

2.21 ГБ

В этой теме нет новых непрочитанных сообщений. В тумане (2012) DVDRip

38 | 5

1.46 ГБ




Вы не можете начинать темы
Вы не можете отвечать на сообщения
Вы не можете редактировать свои сообщения
Вы не можете удалять свои сообщения
Вы не можете добавлять вложения

Перейти:  
Для Мосгорсуда, Роскомнадзора и рекламодателей: mosgorsud-torrent[собачка]yandex.ru
 Вход
ppkBB3cker v.2 © 2008-2014 @ PPK
[ Time : 0.049s | 14 Queries | GZIP : Off ]

Торрент трекер RUTOR.IN, Не можете зайти на rutor.org? Какой новый адрес рутор? Какое зеркало рутор? Не работает rutor.org и зеркала? Тогда наш торрент специально для вас. Rutor.in неофициальное зеркало rutor. В случае если у Вас заблокирован rutor или вдруг Вы не можете на него зайти, то Вы без труда сможете скачать бесплатно и без рекламы последние новинки кино, игр, сериалов и прочего у нас, на Rutor.in. Не нужно использовать прокси, чтобы зайти на рутор, достаточно воспользоваться нашим ресурсом. Все новые фильмы, игры, сериалы, книги и музыка за 2013 и 2014 годы через торрент бесплатно. Скачивайте фильмы в хорошем качестве, игры для пк, xbox, playstation без регистрации. У нас вы найдете новые Зарубежные сериалы и Русские сериалы 2013, 2014, 2015 годов. Оставайтесь с нами, качайте любимые фильмы, игры, сериалы, книги и музыку.