img image001 image001 image001 image001 image001 image001 image001 image001 image001 image001 image001 image001 image001 image001 image001

Planets Sun Sun Sun
Статистика раздачи
Автор: PriZraK | Размер: 1.46 ГБ | Добавлен: 15 фев 2014
Раздают: 13    Качают: 6
Скачать торрент
Скачать торрент
Описание торрента

СообщениеДобавлено: 15 фев 2014 




Страна: Россия, Германия, Нидерланды, Латвия, Беларусь
Жанр: драма, военный, история

Год выпуска: 2012

Продолжительность: 02:07:45


Перевод: Не требуется

Режиссер: Сергей Лозница

В ролях: Владимир Свирский (Сущеня), Владислав Абашин (Буров), Сергей Колесов (Войтик), Никита Перемотов (Гриша), Юлия Пересильд (Анеля), Кирилл Петров (Коробань), Дмитрий Колосов (Мишук), Степан Богданов (Топчиевский), Дмитрий Быковский (Ярошевич), Влад Иванов (Гроссмайер), Игорь Хрипунов (Мироха), Надежда Маркина (мать Бурова)


Описание: Действие исторической драмы происходит в 1942 году в оккупированной немцами Белоруссии. Путевого обходчика Сущеню ложно обвиняют в сотрудничестве с оккупантами. Два партизана приезжают на хутор к Сущене, чтобы совершить расправу. В надежде доказать свою невиновность Сущеня пытается сделать моральный выбор в аморальных обстоятельствах.





Качество: BDRip
Контейнер: AVI
Видео: XviD, 720x304 (2.35:1), 1430 kbps, 24 fps, 0,272 bpp
Аудио: AC3 / 2.0 / 48 kHz / 192 kbps / 16 bit



Общее
Полное имя : E:My_ripV.tumane.2012.BDRip.[Youtracker] .avi
Формат : AVI
Формат/Информация : Audio Video Interleave
Размер файла : 1,46 Гбайт
Продолжительность : 2 ч. 7 м.
Общий поток : 1632 Кбит/сек
Программа кодирования : VirtualDubMod 1.5.10.3 | www.virtualdub-fr.org || (build 2550/release)
Библиотека кодирования : VirtualDubMod build 2550/release

Видео
Идентификатор : 0
Формат : MPEG-4 Visual
Профиль формата : Advanced Simple@L5
Параметр BVOP формата : 2
Параметр QPel формата : Нет
Параметр GMC формата : Без точки перехода
Параметр матрицы формата : Выборочная
Идентификатор кодека : XVID
Идентификатор кодека/Подсказка : XviD
Продолжительность : 2 ч. 7 м.
Битрейт : 1430 Кбит/сек
Ширина : 720 пикселей
Высота : 304 пикселя
Соотношение сторон : 2,35:1
Частота кадров : 24,000 кадра/сек
Цветовое пространство : YUV
Субдискретизация насыщенности : 4:2:0
Битовая глубина : 8 бит
Тип развёртки : Прогрессивная
Метод сжатия : С потерями
Бит/(Пиксели*Кадры) : 0.272
Размер потока : 1,28 Гбайт (88%)
Библиотека кодирования : XviD 65

Аудио
Идентификатор : 1
Формат : AC-3
Формат/Информация : Audio Coding 3
Расширение режима : CM (complete main)
Параметр Endianness формата : Big
Идентификатор кодека : 2000
Продолжительность : 2 ч. 7 м.
Вид битрейта : Постоянный
Битрейт : 192 Кбит/сек
Каналы : 2 канала
Расположение каналов : Front: L R
Частота : 48,0 КГц
Битовая глубина : 16 бит
Метод сжатия : С потерями
Размер потока : 175 Мбайт (12%)
Выравнивание : Разделение по промежуткам
Продолжительность промежутка : 42 мс. (1,00 видеокадр)
Время предзагрузки промежутка : 500 мс.




   Похожие торренты   Торрент   Размер 
В этой теме нет новых непрочитанных сообщений. В тумане (2012) HDRip-AVC от New-Team

9 | 3

1.47 ГБ

В этой теме нет новых непрочитанных сообщений. В тумане (2012) HDRip-AVC от New-Team

5 | 2

743.55 МБ

В этой теме нет новых непрочитанных сообщений. В электрическом тумане / In the Electric Mist (2009) BDRip 720p от NOLIMITS-TEAM

8 | 9

2.21 ГБ

В этой теме нет новых непрочитанных сообщений. Затерянные в тумане / В тумане / Fogbound (2002) DVDRip от FilmRus | P2

131 | 24

1.37 ГБ

В этой теме нет новых непрочитанных сообщений. В тумане (2012) BDRip 720p | Лицензия

67 | 20

7.51 ГБ

В этой теме нет новых непрочитанных сообщений. В тумане (2012) BDRip 1080p | Лицензия

3 | 4

11.79 ГБ

В этой теме нет новых непрочитанных сообщений. В тумане (2012) DVDRip

61 | 4

2.19 ГБ




Вы не можете начинать темы
Вы не можете отвечать на сообщения
Вы не можете редактировать свои сообщения
Вы не можете удалять свои сообщения
Вы не можете добавлять вложения

Перейти:  
Для Мосгорсуда, Роскомнадзора и рекламодателей: mosgorsud-torrent[собачка]yandex.ru
 Вход
ppkBB3cker v.2 © 2008-2014 @ PPK
[ Time : 0.032s | 15 Queries | GZIP : Off ]

cron