img image001 image001 image001 image001 image001 image001 image001 image001 image001 image001 image001 image001 image001 image001 image001

Planets Sun Sun Sun
Статистика раздачи
Автор: PriZraK | Размер: 1.46 ГБ | Добавлен: 15 фев 2014
Раздают: 81    Качают: 12
Скачать торрент
Скачать торрент
Описание торрента

СообщениеДобавлено: 15 фев 2014 


#77
Страна: СССР
Производство: Гостелерадио, Мосфильм
Жанр: мюзикл, фэнтези, мелодрама
Год выпуска: 1978
Продолжительность: 02:10:26 (01:04:29 + 01:05:57)

Перевод: не требуется
Оригинальная аудиодорожка: русский
Cубтитры: нет

Режиссер: Леонид Квинихидзе

В ролях:
Николай Еременко младший, Наталья Трубникова, Владимир Зельдин, Владимир Этуш, Людмила Власова, Александр Годунов (озвучание - Алексей Золотницкий), Марина Нудьга, Любовь Полищук, Игорь Ясулович, Эммануил Геллер, Михаил Кокшенов, Владимир Сошальский, Вячеслав Войнаровский, Андрей Бродский, Николай Лопушихин, Мартин Ренский, Ян Янакиев...

Описание:
Действие фильма происходит в двух временных линиях, в вымышленном XII и XXI веках, в Англии, в один фантастический лунный день - 31 июня. Король Мелиот, владыка сказочного Перадора, ищет жениха для дочери, принцессы Мелисенты. Те претенденты на её руку, что живут с ней в одно время, принцессе не подходят. В этот же день житель XXI века художник Сэм Пэйнти ищет образ девушки для рекламы чулок. Увидев Мелисенту в зеркале, Сэм понимает, что нашёл ту, что так долго искал. Злой волшебник Мальгрим устроил недолгую встречу Мелисенты и Сэма на звёздном мосту - Млечном пути. Молодые люди полюбили друг друга с первого взгляда. Но за их соединение Мальгрим просит слишком большую плату - волшебную брошь великого Мерлина, принадлежащую Мелисенте...





Исходник: DVD9 R5
Тип релиза: DVDRip
Контейнер: AVI

Видео: 720x528 (4:3), 25 fps, XviD ~ 1460 kbps avg, 0.154 bit/pixel
Аудио: 48 kHz, MP3 2.0, 128 kbps
Общее
Полное имя : 31.iyunya.1978.DVDRip-745_[Youtracker]_by_AVP Studio.avi
Формат : AVI
Формат/Информация : Audio Video Interleave
Размер файла : 737 Мбайт
Продолжительность : 1 ч. 4 м.
Общий поток : 1598 Кбит/сек
Программа кодирования : VirtualDubModRus 1.5.10.2 (build 2542/release)
Библиотека кодирования : VirtualDubMod build 2542/release

Видео
Идентификатор : 0
Формат : MPEG-4 Visual
Профиль формата : Advanced Simple@L5
Параметр BVOP формата : 1
Параметр QPel формата : Нет
Параметр GMC формата : Без точки перехода
Параметр матрицы формата : Выборочная
Идентификатор кодека : XVID
Идентификатор кодека/Подсказка : XviD
Продолжительность : 1 ч. 4 м.
Битрейт : 1460 Кбит/сек
Ширина : 720 пикселей
Высота : 528 пикселей
Соотношение сторон : 4:3
Частота кадров : 25,000 кадров/сек
Цветовое пространство : YUV
Субдискретизация насыщенности : 4:2:0
Битовая глубина : 8 бит
Тип развёртки : Прогрессивная
Метод сжатия : С потерями
Бит/(Пиксели*Кадры) : 0.154
Размер потока : 673 Мбайт (91%)
Библиотека кодирования : XviD 73

Аудио
Идентификатор : 1
Формат : MPEG Audio
Версия формата : Version 1
Профиль формата : Layer 3
Идентификатор кодека : 55
Идентификатор кодека/Подсказка : MP3
Продолжительность : 1 ч. 4 м.
Вид битрейта : Постоянный
Битрейт : 128 Кбит/сек
Каналы : 2 канала
Частота : 48,0 КГц
Метод сжатия : С потерями
Размер потока : 59,0 Мбайт (8%)
Выравнивание : Соединение по промежуткам
Продолжительность промежутка : 40 мс. (1,00 видеокадр)
Время предзагрузки промежутка : 504 мс.
Библиотека кодирования : LAME3.99r
Настройки программы : -m s -V 4 -q 2 -lowpass 17 -b 128




Этот мюзикл был показан по телевидению лишь единожды, а потом на долгие десять лет положен "на полку" по той причине, что исполнитель одной из ролей Александр Годунов (придворный музыкант Лэмисон) 23 августа 1979 года, во время гастролей Большого театра в Нью-Йорке, сбежал от "прелестей" социализма в США. Очень уж заметной балетной карьеры на Западе Годунов не сделал. Он был принят в труппу Театра американского балета, где выступал как ведущий танцовщик. В 1982 году контракт с театром не был продлен из-за разногласий с руководителем труппы Михаилом Барышниковым. Некоторое время Годунов выступал с собственной труппой. Как приглашенная звезда, много гастролировал в США, Канаде, Латинской Америке, Австралии, Израиле, Европе, Японии. "Все эти люди давно умерли. Умерли не своей смертью", - промолвил в финале фильма "31 июня" герой Этуша, злой волшебник, хранитель древнего музея, созданного на руинах замка Перадор. И кивнул в сторону скульптуры музыканта Лэмисона. В мае 1995 года Александра Годунова нашли мертвым в собственной квартире в голливудском Городе ангелов. Обстоятельства смерти до сих пор покрыты завесой тайны. Врачи не обнаружили ни следов насилия, ни травм, ни признаков алкоголя или наркотиков в крови. Его имущество и деньги достались случайным людям. И поэтому полиция подозревала, что совершено убийство. Но доказать ничего не удалось. По завещанию тело знаменитого танцовщика было кремировано, а пепел развеян над Тихим океаном.



   Похожие торренты   Торрент   Размер 
В этой теме нет новых непрочитанных сообщений. 31 июня (1978) DVDRip от New-Team

53 | 10

2.19 ГБ

В этой теме нет новых непрочитанных сообщений. 31 июня (1978) DVDRip-AVC от New-Team

115 | 17

2.19 ГБ

В этой теме нет новых непрочитанных сообщений. 31 июня (1978) DVDRip

98 | 9

1.37 ГБ

В этой теме нет новых непрочитанных сообщений. 31 июня (1978) DVDRip

38 | 3

2.33 ГБ

В этой теме нет новых непрочитанных сообщений. 31 июня (1978) DVD9

146 | 46

6.19 ГБ

В этой теме нет новых непрочитанных сообщений. Крепость (1978) DVDRip от New-Team

59 | 3

743.59 МБ

В этой теме нет новых непрочитанных сообщений. Кузнечик (1978) DVDRip-AVC от New-Team

17 | 6

1.46 ГБ




Вы не можете начинать темы
Вы не можете отвечать на сообщения
Вы не можете редактировать свои сообщения
Вы не можете удалять свои сообщения
Вы не можете добавлять вложения

Перейти:  
Для Мосгорсуда, Роскомнадзора и рекламодателей: mosgorsud-torrent[собачка]yandex.ru
 Вход
ppkBB3cker v.2 © 2008-2014 @ PPK
[ Time : 0.050s | 16 Queries | GZIP : Off ]

Торрент трекер RUTOR.IN, Не можете зайти на rutor.org? Какой новый адрес рутор? Какое зеркало рутор? Не работает rutor.org и зеркала? Тогда наш торрент специально для вас. Rutor.in неофициальное зеркало rutor. В случае если у Вас заблокирован rutor или вдруг Вы не можете на него зайти, то Вы без труда сможете скачать бесплатно и без рекламы последние новинки кино, игр, сериалов и прочего у нас, на Rutor.in. Не нужно использовать прокси, чтобы зайти на рутор, достаточно воспользоваться нашим ресурсом. Все новые фильмы, игры, сериалы, книги и музыка за 2013 и 2014 годы через торрент бесплатно. Скачивайте фильмы в хорошем качестве, игры для пк, xbox, playstation без регистрации. У нас вы найдете новые Зарубежные сериалы и Русские сериалы 2013, 2014, 2015 годов. Оставайтесь с нами, качайте любимые фильмы, игры, сериалы, книги и музыку.