img image001 image001 image001 image001 image001 image001 image001 image001 image001 image001 image001 image001 image001 image001 image001

Planets Sun Sun Sun
Статистика раздачи
Автор: PriZraK | Размер: 2.19 ГБ | Добавлен: 15 фев 2014
Раздают: 115    Качают: 17
Скачать торрент
Скачать торрент
Описание торрента

СообщениеДобавлено: 15 фев 2014 


#77
Страна: СССР
Производство: Гостелерадио, Мосфильм
Жанр: мюзикл, фэнтези, мелодрама
Год выпуска: 1978
Продолжительность: 02:10:26 (01:04:29 + 01:05:57)

Перевод: не требуется
Оригинальная аудиодорожка: русский
Cубтитры: нет

Режиссер: Леонид Квинихидзе

В ролях:
Николай Еременко младший, Наталья Трубникова, Владимир Зельдин, Владимир Этуш, Людмила Власова, Александр Годунов (озвучание - Алексей Золотницкий), Марина Нудьга, Любовь Полищук, Игорь Ясулович, Эммануил Геллер, Михаил Кокшенов, Владимир Сошальский, Вячеслав Войнаровский, Андрей Бродский, Николай Лопушихин, Мартин Ренский, Ян Янакиев...

Описание:
Действие фильма происходит в двух временных линиях, в вымышленном XII и XXI веках, в Англии, в один фантастический лунный день - 31 июня. Король Мелиот, владыка сказочного Перадора, ищет жениха для дочери, принцессы Мелисенты. Те претенденты на её руку, что живут с ней в одно время, принцессе не подходят. В этот же день житель XXI века художник Сэм Пэйнти ищет образ девушки для рекламы чулок. Увидев Мелисенту в зеркале, Сэм понимает, что нашёл ту, что так долго искал. Злой волшебник Мальгрим устроил недолгую встречу Мелисенты и Сэма на звёздном мосту - Млечном пути. Молодые люди полюбили друг друга с первого взгляда. Но за их соединение Мальгрим просит слишком большую плату - волшебную брошь великого Мерлина, принадлежащую Мелисенте...





Исходник: DVD9 R5
Тип релиза: DVDRip-AVC
Контейнер: MKV

Видео: 720->768x576 (4:3), 25 fps, H264 ~ 1949 kbps avg, 0.188 bit/pixel
Аудио: 48 kHz, Dolby AC3 5.1, 448 kbps
Общее
Полное имя : 31.iyunya.1978.DVDRip-AVC_[Youtracker]_by_AVP Studio.mkv
Формат : Matroska
Версия формата : Version 2
Размер файла : 1,11 Гбайт
Продолжительность : 1 ч. 5 м.
Общий поток : 2399 Кбит/сек
Дата кодирования : UTC 2013-10-04 10:23:40
Программа кодирования : mkvmerge v6.1.0 ('Old Devil') built on Mar 4 2013 09:10:42
Библиотека кодирования : libebml v1.3.0 + libmatroska v1.4.0

Видео
Идентификатор : 1
Формат : AVC
Формат/Информация : Advanced Video Codec
Профиль формата : High@L4.1
Параметр CABAC формата : Да
Параметр ReFrames формата : 10 кадров
Идентификатор кодека : V_MPEG4/ISO/AVC
Продолжительность : 1 ч. 5 м.
Битрейт : 1949 Кбит/сек
Ширина : 720 пикселей
Высота : 576 пикселей
Соотношение сторон : 4:3
Частота кадров : 25,000 кадров/сек
Стандарт вещания : PAL
Цветовое пространство : YUV
Субдискретизация насыщенности : 4:2:0
Битовая глубина : 8 бит
Тип развёртки : Прогрессивная
Бит/(Пиксели*Кадры) : 0.188
Размер потока : 898 Мбайт (79%)
Библиотека кодирования : x264 core 138 r2356 a1d3d17
Настройки программы : cabac=1 / ref=10 / deblock=1:-2:-1 / analyse=0x3:0x113 / me=umh / subme=9 / psy=1 / psy_rd=1.00:0.15 / mixed_ref=1 / me_range=32 / chroma_me=1 / trellis=1 / 8x8dct=1 / cqm=0 / deadzone=21,11 / fast_pskip=0 / chroma_qp_offset=-3 / threads=3 / lookahead_threads=1 / sliced_threads=0 / nr=0 / decimate=0 / interlaced=0 / bluray_compat=0 / constrained_intra=0 / bframes=8 / b_pyramid=2 / b_adapt=2 / b_bias=0 / direct=3 / weightb=1 / open_gop=0 / weightp=2 / keyint=250 / keyint_min=25 / scenecut=40 / intra_refresh=0 / rc_lookahead=60 / rc=2pass / mbtree=1 / bitrate=1949 / ratetol=1.0 / qcomp=0.60 / qpmin=0 / qpmax=69 / qpstep=4 / cplxblur=20.0 / qblur=0.5 / ip_ratio=1.40 / aq=1:1.00
Default : Да
Forced : Нет

Аудио
Идентификатор : 2
Формат : AC-3
Формат/Информация : Audio Coding 3
Расширение режима : CM (complete main)
Идентификатор кодека : A_AC3
Продолжительность : 1 ч. 5 м.
Вид битрейта : Постоянный
Битрейт : 448 Кбит/сек
Каналы : 6 каналов
Расположение каналов : Front: L C R, Side: L R, LFE
Частота : 48,0 КГц
Битовая глубина : 16 бит
Метод сжатия : С потерями
Задержка видео : 783 мс.
Размер потока : 211 Мбайт (19%)
Default : Да
Forced : Нет




Этот мюзикл был показан по телевидению лишь единожды, а потом на долгие десять лет положен "на полку" по той причине, что исполнитель одной из ролей Александр Годунов (придворный музыкант Лэмисон) 23 августа 1979 года, во время гастролей Большого театра в Нью-Йорке, сбежал от "прелестей" социализма в США. Очень уж заметной балетной карьеры на Западе Годунов не сделал. Он был принят в труппу Театра американского балета, где выступал как ведущий танцовщик. В 1982 году контракт с театром не был продлен из-за разногласий с руководителем труппы Михаилом Барышниковым. Некоторое время Годунов выступал с собственной труппой. Как приглашенная звезда, много гастролировал в США, Канаде, Латинской Америке, Австралии, Израиле, Европе, Японии. "Все эти люди давно умерли. Умерли не своей смертью", - промолвил в финале фильма "31 июня" герой Этуша, злой волшебник, хранитель древнего музея, созданного на руинах замка Перадор. И кивнул в сторону скульптуры музыканта Лэмисона. В мае 1995 года Александра Годунова нашли мертвым в собственной квартире в голливудском Городе ангелов. Обстоятельства смерти до сих пор покрыты завесой тайны. Врачи не обнаружили ни следов насилия, ни травм, ни признаков алкоголя или наркотиков в крови. Его имущество и деньги достались случайным людям. И поэтому полиция подозревала, что совершено убийство. Но доказать ничего не удалось. По завещанию тело знаменитого танцовщика было кремировано, а пепел развеян над Тихим океаном.



   Похожие торренты   Торрент   Размер 
В этой теме нет новых непрочитанных сообщений. 31 июня (1978) DVDRip от New-Team

53 | 10

2.19 ГБ

В этой теме нет новых непрочитанных сообщений. 31 июня (1978) DVDRip от New-Team

81 | 12

1.46 ГБ

В этой теме нет новых непрочитанных сообщений. 31 июня (1978) DVDRip

38 | 3

2.33 ГБ

В этой теме нет новых непрочитанных сообщений. 31 июня (1978) DVDRip

98 | 9

1.37 ГБ

В этой теме нет новых непрочитанных сообщений. 31 июня (1978) DVD9

146 | 46

6.19 ГБ

В этой теме нет новых непрочитанных сообщений. Кузнечик (1978) DVDRip от New-Team

35 | 10

1.45 ГБ

В этой теме нет новых непрочитанных сообщений. Кузнечик (1978) DVDRip-AVC от New-Team

17 | 6

1.46 ГБ




Вы не можете начинать темы
Вы не можете отвечать на сообщения
Вы не можете редактировать свои сообщения
Вы не можете удалять свои сообщения
Вы не можете добавлять вложения

Перейти:  
Для Мосгорсуда, Роскомнадзора и рекламодателей: mosgorsud-torrent[собачка]yandex.ru
 Вход
ppkBB3cker v.2 © 2008-2014 @ PPK
[ Time : 1.475s | 14 Queries | GZIP : Off ]

Торрент трекер RUTOR.IN, Не можете зайти на rutor.org? Какой новый адрес рутор? Какое зеркало рутор? Не работает rutor.org и зеркала? Тогда наш торрент специально для вас. Rutor.in неофициальное зеркало rutor. В случае если у Вас заблокирован rutor или вдруг Вы не можете на него зайти, то Вы без труда сможете скачать бесплатно и без рекламы последние новинки кино, игр, сериалов и прочего у нас, на Rutor.in. Не нужно использовать прокси, чтобы зайти на рутор, достаточно воспользоваться нашим ресурсом. Все новые фильмы, игры, сериалы, книги и музыка за 2013 и 2014 годы через торрент бесплатно. Скачивайте фильмы в хорошем качестве, игры для пк, xbox, playstation без регистрации. У нас вы найдете новые Зарубежные сериалы и Русские сериалы 2013, 2014, 2015 годов. Оставайтесь с нами, качайте любимые фильмы, игры, сериалы, книги и музыку.