img image001 image001 image001 image001 image001 image001 image001 image001 image001 image001 image001 image001 image001 image001 image001

Planets Sun Sun Sun
Статистика раздачи
Автор: PriZraK | Размер: 744.95 МБ | Добавлен: 15 фев 2014
Раздают: 5    Качают: 5
Скачать торрент
Скачать торрент
Описание торрента

СообщениеДобавлено: 15 фев 2014 


#77
Страна: СССР
Производство: Kиностудия им. Довженко, Грузия-фильм
Жанр: военный, детектив
Год выпуска: 1979
Продолжительность: 01:12:51

Перевод: не требуется
Оригинальная аудиодорожка: русский
Cубтитры: нет

Режиссер: Отар Коберидзе

В ролях:
С.Джачвлиани, С.Тома, А.Денисов, О.Коберидзе, В.Талашко, В.Чубарев, Я.Мелдерис, М.Голубович...

Описание:
К фашистам, занявшим украинский хутор, попадает информация о складе с оружием стратегического назначения, но, ни немцам, ни партизанам неизвестно его точное местоположение.
С «большой земли» радируют о том, что скоро в хутор должен проникнуть связной с координатами склада. Кто первым доберется до тайного арсенала? Между отважными партизанами и коварными офицерами СС начинается жестокий и бескомпромиссный поединок, исход которого невозможно предугадать...





Исходник: DVD5 R5
Тип релиза: DVDRip
Контейнер: AVI

Видео: 720x320 (4:3), 25 fps, XviD ~ 1228 kbps avg, 0.213 bit/pixel
Аудио: 48 kHz, Dolby AC3 2.0, 192 kbps
Общее
Полное имя : Zhdite.svyaznogo.1979.DVDRip_[Youtracker]_by_AVP Studio.avi
Формат : AVI
Формат/Информация : Audio Video Interleave
Размер файла : 745 Мбайт
Продолжительность : 1 ч. 12 м.
Общий поток : 1430 Кбит/сек
Программа кодирования : VirtualDubModRus 1.5.10.2 (build 2542/release)
Библиотека кодирования : VirtualDubMod build 2542/release

Видео
Идентификатор : 0
Формат : MPEG-4 Visual
Профиль формата : Advanced Simple@L5
Параметр BVOP формата : 1
Параметр QPel формата : Нет
Параметр GMC формата : Без точки перехода
Параметр матрицы формата : Выборочная
Идентификатор кодека : XVID
Идентификатор кодека/Подсказка : XviD
Продолжительность : 1 ч. 12 м.
Битрейт : 1228 Кбит/сек
Ширина : 720 пикселей
Высота : 320 пикселей
Соотношение сторон : 2,25:1
Частота кадров : 25,000 кадров/сек
Цветовое пространство : YUV
Субдискретизация насыщенности : 4:2:0
Битовая глубина : 8 бит
Тип развёртки : Прогрессивная
Метод сжатия : С потерями
Бит/(Пиксели*Кадры) : 0.213
Размер потока : 640 Мбайт (86%)
Библиотека кодирования : XviD 73

Аудио
Идентификатор : 1
Формат : AC-3
Формат/Информация : Audio Coding 3
Расширение режима : CM (complete main)
Идентификатор кодека : 2000
Продолжительность : 1 ч. 12 м.
Вид битрейта : Постоянный
Битрейт : 192 Кбит/сек
Каналы : 2 канала
Расположение каналов : Front: L R
Частота : 48,0 КГц
Битовая глубина : 16 бит
Метод сжатия : С потерями
Размер потока : 100 Мбайт (13%)
Выравнивание : Разделение по промежуткам
Продолжительность промежутка : 40 мс. (1,00 видеокадр)
Время предзагрузки промежутка : 500 мс





   Похожие торренты   Торрент   Размер 
В этой теме нет новых непрочитанных сообщений. Ждите связного (1979) DVDRip-AVC от New-Team

0 | 5

744 МБ

В этой теме нет новых непрочитанных сообщений. Ждите связного (1979) DVDRip от Alekxandr48

0 | 2

701.36 МБ

В этой теме нет новых непрочитанных сообщений. Ждите писем (1960) DVDRip

124 | 19

1.34 ГБ

В этой теме нет новых непрочитанных сообщений. Гараж (1979) DVDRip-AVC от New-Team

227 | 18

1.46 ГБ

В этой теме нет новых непрочитанных сообщений. Экипаж (1979) DVDRip от New-Team

24 | 5

2.19 ГБ

В этой теме нет новых непрочитанных сообщений. За спичками (1979) DVDRip-AVC от New-Team

70 | 4

1.46 ГБ

В этой теме нет новых непрочитанных сообщений. За спичками (1979) DVDRip от New-Team

18 | 9

743.9 МБ




Вы не можете начинать темы
Вы не можете отвечать на сообщения
Вы не можете редактировать свои сообщения
Вы не можете удалять свои сообщения
Вы не можете добавлять вложения

Перейти:  
Для Мосгорсуда, Роскомнадзора и рекламодателей: mosgorsud-torrent[собачка]yandex.ru
 Вход
ppkBB3cker v.2 © 2008-2014 @ PPK
[ Time : 0.043s | 17 Queries | GZIP : Off ]

cron