img image001 image001 image001 image001 image001 image001 image001 image001 image001 image001 image001 image001 image001 image001 image001

Planets Sun Sun Sun
Статистика раздачи
Автор: PriZraK | Размер: 6.56 ГБ | Добавлен: 15 фев 2014
Раздают: 12    Качают: 3
Скачать торрент
Скачать торрент
Описание торрента

СообщениеДобавлено: 15 фев 2014 


#77
Страна: СССР
Производство: ТО Экран
Жанр: военный
Год выпуска: 1975
Продолжительность: 05:56:44 (01:11:10 + 01:09:01 + 01:11:56 + 01:15:45 + 01:08:52)

Перевод: не требуется
Оригинальная аудиодорожка: русский
Cубтитры: нет

Режиссер: Антонис Воязос

В ролях: Олег Даль, Игорь Васильев, Елена Прудникова, Ирина Печерникова, Евгений Евстигнеев, Вадим Яковлев (II), Сергей Полежаев, Пауль Кальде, Александр Калягин, Алексей Эйбоженко, Федор Никитин, Виталий Коняев, Людмила Иванова, Рейно Арен, Эйнари Коппель, Игорь Кан, Александр Липов, Валерий Лысенков, Дмитрий Орловский, Юлле Кони...

Роли дублировали: Виктория Чаева, Игорь Ясулович, Артем Карапетян, Юрий Саранцев

Описание: Весной 1942 года в оккупированный Таллин приезжает профессиональный контрразведчик майор абвера барон Георг фон Шлоссер, о прибытии которого становится известно советской разведке.
Для того, чтобы выяснить, с каким заданием майор Шлоссер прибыл в столицу Эстонии, в Таллин с легендой немецкого офицера Пауля Кригера, который приехал в отпуск из-за ранения для того, чтобы найти свою невесту, направляется старший лейтенант государственной безопасности Сергей Николаевич Скорин, только что вернувшийся из Германии.
Единственным средством сблизиться со Шлоссером оказывается заранее заготовленный «вариант „Омега“» — Скорин провоцирует собственный провал и позволяет Шлоссеру перевербовать себя.
Основная фабула фильма — психологический поединок, который ведут советский разведчик и немецкий контрразведчик: Скорин — филолог по образованию, и Шлоссер — немецкий аристократ, сын генерала рейхсвера, который не принимает нацизм, но вынужден ему служить....





Полная реставрация изображения и звука.

Исходник: 2хDVD9 R5 + DVD5 R5
Тип релиза: DVDRip
Контейнер: AVI
Видео: 720x544 (4:3), 25 fps, XviD ~ 2174 kbps avg, 0.222 bit/pixel
Аудио: 48 kHz, Dolby AC3 5.1, 448 kbps
Общее
Полное имя : Variant.Omega.1975.DVDRip_[Youtracker]_by_AVP Studio.avi
Формат : AVI
Формат/Информация : Audio Video Interleave
Размер файла : 1,32 Гбайт
Продолжительность : 1 ч. 11 м.
Общий поток : 2632 Кбит/сек
Программа кодирования : VirtualDubModRus 1.5.10.2 (build 2542/release)
Библиотека кодирования : VirtualDubMod build 2542/release

Видео
Идентификатор : 0
Формат : MPEG-4 Visual
Профиль формата : Advanced Simple@L5
Параметр BVOP формата : 1
Параметр QPel формата : Нет
Параметр GMC формата : Без точки перехода
Параметр матрицы формата : Выборочная
Идентификатор кодека : XVID
Идентификатор кодека/Подсказка : XviD
Продолжительность : 1 ч. 11 м.
Битрейт : 2174 Кбит/сек
Ширина : 720 пикселей
Высота : 544 пикселя
Соотношение сторон : 4:3
Частота кадров : 25,000 кадров/сек
Цветовое пространство : YUV
Субдискретизация насыщенности : 4:2:0
Битовая глубина : 8 бит
Тип развёртки : Прогрессивная
Метод сжатия : С потерями
Бит/(Пиксели*Кадры) : 0.222
Размер потока : 1,09 Гбайт (83%)
Библиотека кодирования : XviD 73

Аудио
Идентификатор : 1
Формат : AC-3
Формат/Информация : Audio Coding 3
Расширение режима : CM (complete main)
Идентификатор кодека : 2000
Продолжительность : 1 ч. 11 м.
Вид битрейта : Постоянный
Битрейт : 448 Кбит/сек
Каналы : 6 каналов
Расположение каналов : Front: L C R, Side: L R, LFE
Частота : 48,0 КГц
Битовая глубина : 16 бит
Метод сжатия : С потерями
Размер потока : 231 Мбайт (17%)
Выравнивание : Разделение по промежуткам
Продолжительность промежутка : 40 мс. (1,00 видеокадр)
Время предзагрузки промежутка : 500 мс



1. Песню на стихи Роберта Рождественского исполняет Олег Даль. Изначально песня была записана Юлием Слободкиным, где его голос вставлен небольшими вставками в исполнение Олега Даля.

2. Александр Целлариус является реальным лицом, действительно возглавлявшим абверкоманду в Таллине в период немецкой оккупации.

3. В первой серии на стене кабинета Целлариуса висит послевоенная карта Европы. Это отчетливо видно по нынешним границам Польши.Также, в этой же серии когда Шлоссер рассматривает фотографии зверств айнзацгрупп, нетрудно заметить, что одно из фото из событии ликвидации Варшавского гетто, что случилось годом позже — 1943, а события в фильме разворачиваются в 1942-м году.

4. Книга, по которой Скорин/Кригер шифрует радиограммы в центр - томик стихов Генриха Гейне "Романсеро" (Romanzero). Одно из стихотворений в третьей серии фильма - "Enfant Perdu" / "Смертник" - начинают читать дешифровальщики, а заканчивает по памяти майор Шлоссер, добавив: "Запрещённый Гейне. Любопытный выбор для кода".



   Похожие торренты   Торрент   Размер 
В этой теме нет новых непрочитанных сообщений. Вариант «Омега» (1975) DVDRip-AVC от New-Team

4 | 3

6.55 ГБ

В этой теме нет новых непрочитанных сообщений. Вариант «Омега» (1975) DVDRip-AVC от ExKinoRay

70 | 24

6.92 ГБ

В этой теме нет новых непрочитанных сообщений. Вариант "Омега" сериал (1975) DVDRip | полная реставрация

56 | 7

3.42 ГБ

В этой теме нет новых непрочитанных сообщений. S.T.A.L.K.E.R.: Shadow of Chernobyl - Вариант Омега (2014) PC | Mod

49 | 19

2.7 ГБ

В этой теме нет новых непрочитанных сообщений. S.T.A.L.K.E.R.: Shadow of Chernobyl - Вариант Омега (2014) PC | Mod

5 | 7

2.91 ГБ

В этой теме нет новых непрочитанных сообщений. S.T.A.L.K.E.R.: Shadow of Chernobyl - Вариант Омега [Часть 1-я] (2012) PC | Mod

0 | 2

2.04 ГБ

В этой теме нет новых непрочитанных сообщений. S.T.A.L.K.E.R.: Shadow of Chernobyl - Вариант Омега (2012) PC | RePack от SeregA-Lus

9 | 2

5.35 ГБ




Вы не можете начинать темы
Вы не можете отвечать на сообщения
Вы не можете редактировать свои сообщения
Вы не можете удалять свои сообщения
Вы не можете добавлять вложения

Перейти:  
Для Мосгорсуда, Роскомнадзора и рекламодателей: mosgorsud-torrent[собачка]yandex.ru
 Вход
ppkBB3cker v.2 © 2008-2014 @ PPK
[ Time : 1.534s | 16 Queries | GZIP : Off ]

Торрент трекер RUTOR.IN, Не можете зайти на rutor.org? Какой новый адрес рутор? Какое зеркало рутор? Не работает rutor.org и зеркала? Тогда наш торрент специально для вас. Rutor.in неофициальное зеркало rutor. В случае если у Вас заблокирован rutor или вдруг Вы не можете на него зайти, то Вы без труда сможете скачать бесплатно и без рекламы последние новинки кино, игр, сериалов и прочего у нас, на Rutor.in. Не нужно использовать прокси, чтобы зайти на рутор, достаточно воспользоваться нашим ресурсом. Все новые фильмы, игры, сериалы, книги и музыка за 2013 и 2014 годы через торрент бесплатно. Скачивайте фильмы в хорошем качестве, игры для пк, xbox, playstation без регистрации. У нас вы найдете новые Зарубежные сериалы и Русские сериалы 2013, 2014, 2015 годов. Оставайтесь с нами, качайте любимые фильмы, игры, сериалы, книги и музыку.
cron