img image001 image001 image001 image001 image001 image001 image001 image001 image001 image001 image001 image001 image001 image001 image001

Planets Sun Sun Sun
Статистика раздачи
Автор: PriZraK | Размер: 6.55 ГБ | Добавлен: 15 фев 2014
Раздают: 4    Качают: 3
Скачать торрент
Скачать торрент
Описание торрента

СообщениеДобавлено: 15 фев 2014 


#77
Страна: СССР
Производство: ТО Экран
Жанр: военный
Год выпуска: 1975
Продолжительность: 05:56:44 (01:11:10 + 01:09:01 + 01:11:56 + 01:15:45 + 01:08:52)

Перевод: не требуется
Оригинальная аудиодорожка: русский
Cубтитры: нет

Режиссер: Антонис Воязос

В ролях: Олег Даль, Игорь Васильев, Елена Прудникова, Ирина Печерникова, Евгений Евстигнеев, Вадим Яковлев (II), Сергей Полежаев, Пауль Кальде, Александр Калягин, Алексей Эйбоженко, Федор Никитин, Виталий Коняев, Людмила Иванова, Рейно Арен, Эйнари Коппель, Игорь Кан, Александр Липов, Валерий Лысенков, Дмитрий Орловский, Юлле Кони...

Роли дублировали: Виктория Чаева, Игорь Ясулович, Артем Карапетян, Юрий Саранцев

Описание: Весной 1942 года в оккупированный Таллин приезжает профессиональный контрразведчик майор абвера барон Георг фон Шлоссер, о прибытии которого становится известно советской разведке.
Для того, чтобы выяснить, с каким заданием майор Шлоссер прибыл в столицу Эстонии, в Таллин с легендой немецкого офицера Пауля Кригера, который приехал в отпуск из-за ранения для того, чтобы найти свою невесту, направляется старший лейтенант государственной безопасности Сергей Николаевич Скорин, только что вернувшийся из Германии.
Единственным средством сблизиться со Шлоссером оказывается заранее заготовленный «вариант „Омега“» — Скорин провоцирует собственный провал и позволяет Шлоссеру перевербовать себя.
Основная фабула фильма — психологический поединок, который ведут советский разведчик и немецкий контрразведчик: Скорин — филолог по образованию, и Шлоссер — немецкий аристократ, сын генерала рейхсвера, который не принимает нацизм, но вынужден ему служить....






Исходник: 2хDVD9 R5 + DVD5 R5
Тип релиза: DVDRip-AVC
Контейнер: MKV

Видео: 720->768x576 (4:3), 25 fps, H264 ~ 2180 kbps avg, 0.210 bit/pixel
Аудио: 48 kHz, Dolby AC3 5.1, 448 kbps
Общее
Полное имя : Variant.Omega.1975.DVDRip-AVC_[Youtracker]_by_AVP Studio3.mkv
Формат : Matroska
Версия формата : Version 2
Размер файла : 1,32 Гбайт
Продолжительность : 1 ч. 11 м.
Общий поток : 2630 Кбит/сек
Дата кодирования : UTC 2013-10-05 19:18:59
Программа кодирования : mkvmerge v6.1.0 ('Old Devil') built on Mar 4 2013 09:10:42
Библиотека кодирования : libebml v1.3.0 + libmatroska v1.4.0

Видео
Идентификатор : 1
Формат : AVC
Формат/Информация : Advanced Video Codec
Профиль формата : High@L4.1
Параметр CABAC формата : Да
Параметр ReFrames формата : 10 кадров
Идентификатор кодека : V_MPEG4/ISO/AVC
Продолжительность : 1 ч. 11 м.
Битрейт : 2180 Кбит/сек
Ширина : 720 пикселей
Высота : 576 пикселей
Соотношение сторон : 4:3
Частота кадров : 25,000 кадров/сек
Стандарт вещания : PAL
Цветовое пространство : YUV
Субдискретизация насыщенности : 4:2:0
Битовая глубина : 8 бит
Тип развёртки : Прогрессивная
Бит/(Пиксели*Кадры) : 0.210
Размер потока : 1,07 Гбайт (81%)
Библиотека кодирования : x264 core 138 r2356 a1d3d17
Настройки программы : cabac=1 / ref=10 / deblock=1:-2:-1 / analyse=0x3:0x113 / me=umh / subme=9 / psy=1 / psy_rd=1.00:0.15 / mixed_ref=1 / me_range=32 / chroma_me=1 / trellis=1 / 8x8dct=1 / cqm=0 / deadzone=21,11 / fast_pskip=0 / chroma_qp_offset=-3 / threads=3 / lookahead_threads=1 / sliced_threads=0 / nr=0 / decimate=0 / interlaced=0 / bluray_compat=0 / constrained_intra=0 / bframes=8 / b_pyramid=2 / b_adapt=2 / b_bias=0 / direct=3 / weightb=1 / open_gop=0 / weightp=2 / keyint=250 / keyint_min=25 / scenecut=40 / intra_refresh=0 / rc_lookahead=60 / rc=2pass / mbtree=1 / bitrate=2180 / ratetol=1.0 / qcomp=0.60 / qpmin=0 / qpmax=69 / qpstep=4 / cplxblur=20.0 / qblur=0.5 / ip_ratio=1.40 / aq=1:1.00
Default : Да
Forced : Нет

Аудио
Идентификатор : 2
Формат : AC-3
Формат/Информация : Audio Coding 3
Расширение режима : CM (complete main)
Идентификатор кодека : A_AC3
Продолжительность : 1 ч. 11 м.
Вид битрейта : Постоянный
Битрейт : 448 Кбит/сек
Каналы : 6 каналов
Расположение каналов : Front: L C R, Side: L R, LFE
Частота : 48,0 КГц
Битовая глубина : 16 бит
Метод сжатия : С потерями
Размер потока : 231 Мбайт (17%)
Default : Да
Forced : Нет



1. Песню на стихи Роберта Рождественского исполняет Олег Даль. Изначально песня была записана Юлием Слободкиным, где его голос вставлен небольшими вставками в исполнение Олега Даля.
2. Александр Целлариус является реальным лицом, действительно возглавлявшим абверкоманду в Таллине в период немецкой оккупации.
3. В первой серии на стене кабинета Целлариуса висит послевоенная карта Европы. Это отчетливо видно по нынешним границам Польши.Также, в этой же серии когда Шлоссер рассматривает фотографии зверств айнзацгрупп, нетрудно заметить, что одно из фото из событии ликвидации Варшавского гетто, что случилось годом позже — 1943, а события в фильме разворачиваются в 1942-м году.
4. Книга, по которой Скорин/Кригер шифрует радиограммы в центр - томик стихов Генриха Гейне "Романсеро" (Romanzero). Одно из стихотворений в третьей серии фильма - "Enfant Perdu" / "Смертник" - начинают читать дешифровальщики, а заканчивает по памяти майор Шлоссер, добавив: "Запрещённый Гейне. Любопытный выбор для кода".



   Похожие торренты   Торрент   Размер 
В этой теме нет новых непрочитанных сообщений. Вариант «Омега» (1975) DVDRip от New-Team

12 | 3

6.56 ГБ

В этой теме нет новых непрочитанных сообщений. Вариант «Омега» (1975) DVDRip-AVC от ExKinoRay

60 | 24

6.92 ГБ

В этой теме нет новых непрочитанных сообщений. Вариант "Омега" сериал (1975) DVDRip | полная реставрация

56 | 7

3.42 ГБ

В этой теме нет новых непрочитанных сообщений. S.T.A.L.K.E.R.: Shadow of Chernobyl - Вариант Омега (2014) PC | Mod

5 | 7

2.91 ГБ

В этой теме нет новых непрочитанных сообщений. S.T.A.L.K.E.R.: Shadow of Chernobyl - Вариант Омега (2014) PC | Mod

49 | 19

2.7 ГБ

В этой теме нет новых непрочитанных сообщений. S.T.A.L.K.E.R.: Shadow of Chernobyl - Вариант Омега [Часть 1-я] (2012) PC | Mod

0 | 2

2.04 ГБ

В этой теме нет новых непрочитанных сообщений. S.T.A.L.K.E.R.: Shadow of Chernobyl - Вариант Омега (2014) PC | RePack от SeregA-Lus

37 | 12

5.45 ГБ




Вы не можете начинать темы
Вы не можете отвечать на сообщения
Вы не можете редактировать свои сообщения
Вы не можете удалять свои сообщения
Вы не можете добавлять вложения

Перейти:  
Для Мосгорсуда, Роскомнадзора и рекламодателей: mosgorsud-torrent[собачка]yandex.ru
 Вход
ppkBB3cker v.2 © 2008-2014 @ PPK
[ Time : 0.106s | 16 Queries | GZIP : Off ]

Торрент трекер RUTOR.IN, Не можете зайти на rutor.org? Какой новый адрес рутор? Какое зеркало рутор? Не работает rutor.org и зеркала? Тогда наш торрент специально для вас. Rutor.in неофициальное зеркало rutor. В случае если у Вас заблокирован rutor или вдруг Вы не можете на него зайти, то Вы без труда сможете скачать бесплатно и без рекламы последние новинки кино, игр, сериалов и прочего у нас, на Rutor.in. Не нужно использовать прокси, чтобы зайти на рутор, достаточно воспользоваться нашим ресурсом. Все новые фильмы, игры, сериалы, книги и музыка за 2013 и 2014 годы через торрент бесплатно. Скачивайте фильмы в хорошем качестве, игры для пк, xbox, playstation без регистрации. У нас вы найдете новые Зарубежные сериалы и Русские сериалы 2013, 2014, 2015 годов. Оставайтесь с нами, качайте любимые фильмы, игры, сериалы, книги и музыку.