img image001 image001 image001 image001 image001 image001 image001 image001 image001 image001 image001 image001 image001 image001 image001

Planets Sun Sun Sun
Статистика раздачи
Автор: PriZraK | Размер: 744.53 МБ | Добавлен: 15 фев 2014
Раздают: 5    Качают: 4
Скачать торрент
Скачать торрент
Описание торрента

СообщениеДобавлено: 15 фев 2014 


#77
Страна: СССР
Производство: Мосфильм
Жанр: детектив, криминал
Год выпуска: 1978
Продолжительность: 01:24:16

Перевод: не требуется
Оригинальная аудиодорожка: русский
Cубтитры: нет

Режиссер: Андрей Ладынин

В ролях:
Всеволод Санаев, Борис Иванов, Иван Воронов, Владимир Тихонов, Петр Вельяминов, Вилныс Бекерис, Елена Драпеко, Анатолий Веденкин, Алевтина Евдокимова, Шавкат Газиев, Валентина Виолкова, Александр Андрусенко, Александр Александров, Владимир Приходько...

Описание:
В самом центре города, среди бела дня, совершено дерзкое ограбление ювелирного магазина.
Через несколько дней в пригороде находят труп мужчины, при котором найдено кольцо из числа украденных. Выясняется, что убитый был ранее судим и связан с местным криминальным авторитетом. Но и авторитета вскоре находят убитым. У ведущего дело полковника милиции Ивана Сергеевича Зорина появляется версия, что преступное дело организовал кто-то из работников ограбленного магазина.
Организатор шайки не только не думает скрываться, но и спокойно общается со следователем. Он уверен, что тонко просчитал все ходы, а потому неуязвим…





Исходник: DVD5 R5
Тип релиза: DVDRip
Контейнер: AVI

Видео: 720x304 (2,35:1), 25 fps, XviD ~ 1033 kbps avg, 0.189 bit/pixel
Аудио: 48 kHz, Dolby AC3 2.0, 192 kbps
Видео
Общее
Полное имя : Versiya.polkovnika.Zorina.1978.DVDRip_[Youtracker]_by_AVP Studio.avi
Формат : AVI
Формат/Информация : Audio Video Interleave
Размер файла : 745 Мбайт
Продолжительность : 1 ч. 24 м.
Общий поток : 1235 Кбит/сек
Программа кодирования : VirtualDubModRus 1.5.10.2 (build 2542/release)
Библиотека кодирования : VirtualDubMod build 2542/release

Видео
Идентификатор : 0
Формат : MPEG-4 Visual
Профиль формата : Advanced Simple@L5
Параметр BVOP формата : 1
Параметр QPel формата : Нет
Параметр GMC формата : Без точки перехода
Параметр матрицы формата : Выборочная
Идентификатор кодека : XVID
Идентификатор кодека/Подсказка : XviD
Продолжительность : 1 ч. 24 м.
Битрейт : 1033 Кбит/сек
Ширина : 720 пикселей
Высота : 304 пикселя
Соотношение сторон : 2,35:1
Частота кадров : 25,000 кадров/сек
Цветовое пространство : YUV
Субдискретизация насыщенности : 4:2:0
Битовая глубина : 8 бит
Тип развёртки : Прогрессивная
Метод сжатия : С потерями
Бит/(Пиксели*Кадры) : 0.189
Размер потока : 623 Мбайт (84%)
Библиотека кодирования : XviD 73

Аудио
Идентификатор : 1
Формат : AC-3
Формат/Информация : Audio Coding 3
Расширение режима : CM (complete main)
Идентификатор кодека : 2000
Продолжительность : 1 ч. 24 м.
Вид битрейта : Постоянный
Битрейт : 192 Кбит/сек
Каналы : 2 канала
Расположение каналов : Front: L R
Частота : 48,0 КГц
Битовая глубина : 16 бит
Метод сжатия : С потерями
Размер потока : 116 Мбайт (16%)
Выравнивание : Разделение по промежуткам
Продолжительность промежутка : 40 мс. (1,00 видеокадр)
Время предзагрузки промежутка : 500 мс



Возвращение «Святого Луки» (1970)
Чёрный принц (1973)
Версия полковника Зорина (1978)



   Похожие торренты   Торрент   Размер 
В этой теме нет новых непрочитанных сообщений. Версия полковника Зорина (1978) DVDRip-AVC от New-Team

30 | 9

744.85 МБ

В этой теме нет новых непрочитанных сообщений. Версия полковника Зорина (1978) DVDRip от SergV

51 | 15

1.37 ГБ

В этой теме нет новых непрочитанных сообщений. Версия полковника Зорина (1978) DVD5

1 | 11

3.51 ГБ

В этой теме нет новых непрочитанных сообщений. Ожидание полковника Шалыгина (1981) SATRip от New-Team

43 | 11

1.46 ГБ

В этой теме нет новых непрочитанных сообщений. Ожидание полковника Шалыгина (1981) SATRip-AVC от New-Team

31 | 9

744.81 МБ

В этой теме нет новых непрочитанных сообщений. Ожидание полковника Шалыгина (1981) SATRip от New-Team

5 | 3

743.85 МБ

В этой теме нет новых непрочитанных сообщений. Хэллоуин / Halloween (1978) DVDRip | Расширенная версия

14 | 56

1.46 ГБ




Вы не можете начинать темы
Вы не можете отвечать на сообщения
Вы не можете редактировать свои сообщения
Вы не можете удалять свои сообщения
Вы не можете добавлять вложения

Перейти:  
Для Мосгорсуда, Роскомнадзора и рекламодателей: mosgorsud-torrent[собачка]yandex.ru
 Вход
ppkBB3cker v.2 © 2008-2014 @ PPK
[ Time : 0.047s | 16 Queries | GZIP : Off ]

cron