img image001 image001 image001 image001 image001 image001 image001 image001 image001 image001 image001 image001 image001 image001 image001

Planets Sun Sun Sun
Статистика раздачи
Автор: PriZraK | Размер: 3.42 ГБ | Добавлен: 15 фев 2014
Раздают: 3    Качают: 2
Скачать торрент
Скачать торрент
Описание торрента

СообщениеДобавлено: 15 фев 2014 


#77

Страна: Россия
Студия: 1st River
Жанр: Драма, фантастика
Год выпуска: 2013
Продолжительность: 0:47:27

Перевод: Не требуется
Cубтитры: английские
Режиссер: Василий Шестовец

В ролях: Вадим Замараев, Михаил Марченко, Игорь Чернышёв, Александр Стрелков, Ольга Юренко, Борис Сазонов и др.

Описание: Следователь Александр Гордеев пытается вывести на чистую воду подозрительно везучего человека - Артура Ваймана, на которого буквально сыплются различные выигрыши. Подозреваемый все списывает на свое природное везение и предлагает провести неформальный следственный эксперимент. Гордеев не верит Вайману даже когда лотерейные билеты, купленные на его глазах, оказываются выигрышными. Везунчик идет дальше и вручает следователю билет Всероссийской Федеральной лотереи с огромным джекпотом. Билет выигрывает! Ошеломленный полицейский уже готов поверить в аномальную удачу этого человека, когда снова сталкивается с ним в криминальных обстоятельствах. Кому повезет на этот раз?

Сэмпл: http://multi-up.com/909681

Тип релиза: BDRip 1080p
Контейнер: MKV

Видео: MPEG4 Video (H264), 1920x1080, 16:9, 9618 Kbps, 25fps
Аудио: Русский AC3 5.1, 48 kHz, 448 kbps
General
Unique ID : 193305042372503914707181757060481770584 (0x916D326B5B2CC21D980B238278DB6458)
Complete name : F:VideoNe.povezlo.2013.HDRip.1080p.rus.mkv
Format : Matroska
Format version : Version 4 / Version 2
File size : 3.42 GiB
Duration : 47mn 37s
Overall bit rate : 10.3 Mbps
Encoded date : UTC 2013-09-04 06:57:02
Writing application : mkvmerge v6.3.0 ('You can't stop me!') built on Jun 28 2013 20:09:41
Writing library : libebml v1.3.0 + libmatroska v1.4.0

Video
ID : 1
Format : AVC
Format/Info : Advanced Video Codec
Format profile : High@L4.0
Format settings, CABAC : No
Format settings, ReFrames : 1 frame
Format settings, GOP : M=1, N=12
Codec ID : V_MPEG4/ISO/AVC
Duration : 47mn 37s
Bit rate : 9 618 Kbps
Width : 1 920 pixels
Height : 1 080 pixels
Display aspect ratio : 16:9
Frame rate mode : Constant
Frame rate : 25.000 fps
Color space : YUV
Chroma subsampling : 4:2:0
Bit depth : 8 bits
Scan type : Progressive
Bits/(Pixel*Frame) : 0.186
Stream size : 3.20 GiB (94%)
Default : Yes
Forced : No

Audio
ID : 3
Format : AC-3
Format/Info : Audio Coding 3
Mode extension : CM (complete main)
Format settings, Endianness : Big
Codec ID : A_AC3
Duration : 47mn 37s
Bit rate mode : Constant
Bit rate : 448 Kbps
Channel(s) : 6 channels
Channel positions : Front: L C R, Side: L R, LFE
Sampling rate : 48.0 KHz
Bit depth : 16 bits
Compression mode : Lossy
Stream size : 153 MiB (4%)
Default : Yes
Forced : No

Text
ID : 2
Format : UTF-8
Codec ID : S_TEXT/UTF8
Codec ID/Info : UTF-8 Plain Text
Default : Yes
Forced : No





   Похожие торренты   Торрент   Размер 
В этой теме нет новых непрочитанных сообщений. Не повезло (2013) HDTVRip

18 | 6

689.85 МБ

В этой теме нет новых непрочитанных сообщений. Не повезло (2013) HDTVRip-AVC

6 | 3

1.33 ГБ

В этой теме нет новых непрочитанных сообщений. Просто повезло (2007) DVDRip

191 | 15

1.37 ГБ

В этой теме нет новых непрочитанных сообщений. Джентльмены, которым не повезло (1977) DVDRip от Кинорадиомагия

193 | 96

509.75 МБ

В этой теме нет новых непрочитанных сообщений. Джентльмены, которым не повезло (1977) SATRip от старпёра

17 | 6

870.1 МБ

В этой теме нет новых непрочитанных сообщений. Просто так повезло / Just My Luck (1957) DVDRip от egoleshik | P2

3 | 4

1.37 ГБ

В этой теме нет новых непрочитанных сообщений. Велоспорт. Гран-при Квебека 2013 / Grand Prix Cycliste de Quebec 2013 (2013) HDTV 1080p

0 | 1

6.33 ГБ




Вы не можете начинать темы
Вы не можете отвечать на сообщения
Вы не можете редактировать свои сообщения
Вы не можете удалять свои сообщения
Вы не можете добавлять вложения

Перейти:  
Для Мосгорсуда, Роскомнадзора и рекламодателей: mosgorsud-torrent[собачка]yandex.ru
 Вход
ppkBB3cker v.2 © 2008-2014 @ PPK
[ Time : 0.025s | 14 Queries | GZIP : Off ]

Торрент трекер RUTOR.IN, Не можете зайти на rutor.org? Какой новый адрес рутор? Какое зеркало рутор? Не работает rutor.org и зеркала? Тогда наш торрент специально для вас. Rutor.in неофициальное зеркало rutor. В случае если у Вас заблокирован rutor или вдруг Вы не можете на него зайти, то Вы без труда сможете скачать бесплатно и без рекламы последние новинки кино, игр, сериалов и прочего у нас, на Rutor.in. Не нужно использовать прокси, чтобы зайти на рутор, достаточно воспользоваться нашим ресурсом. Все новые фильмы, игры, сериалы, книги и музыка за 2013 и 2014 годы через торрент бесплатно. Скачивайте фильмы в хорошем качестве, игры для пк, xbox, playstation без регистрации. У нас вы найдете новые Зарубежные сериалы и Русские сериалы 2013, 2014, 2015 годов. Оставайтесь с нами, качайте любимые фильмы, игры, сериалы, книги и музыку.