img image001 image001 image001 image001 image001 image001 image001 image001 image001 image001 image001 image001 image001 image001 image001

Planets Sun Sun Sun
Статистика раздачи
Автор: PriZraK | Размер: 743.68 МБ | Добавлен: 15 фев 2014
Раздают: 24    Качают: 8
Скачать торрент
Скачать торрент
Описание торрента

СообщениеДобавлено: 15 фев 2014 


#77
Страна: СССР
Производство: Студия Довженко
Жанр: комедия, военный
Год выпуска: 1979
Продолжительность: 01:12:01

Перевод: не требуется
Оригинальная аудиодорожка: русский
Cубтитры: нет

Режиссер: Николай Литус, Виталий Шунько

В ролях:
Сергей Иванов, Владимир Алексеенко, Михаил Кокшенов, Надежда Смирнова, Володя Чубарев, Михаил Львов, Нина Реус, Степан Олексенко, Сергей Свечников, Маргарита Криницына, Николай Литус, Борис Сабуров, Евгений Мажуга, Полина (Пелагея) Куманченко, Сергей Шеметило, Владимир Бездомников, Геннадий Болотов, Георгий Дворников, Леонид Марченко, Юрий Мысенков, Лев Перфилов, Анатолий Помилуйко, Анатолий Сиротенко, Анатолий Скорякин, Василий Фущич, Виктор Андриенко...

Описание:
Бойца-разведчика сержанта Цыбулю (Сергей Иванов) отправляют на «дачную поездку» — провести инструктаж в партизанском отряде. Но ночной прыжок из самолёта на парашюте оказался неудачным — «три костра в линию», служащие ориентиром, оказались кострами, на которых полицаи обрабатывали реквизированных у населения свиней…
Приземлившись в логове противника, Цыбуля тем не менее не растерялся, а захватил в плен немецкого майора. Затем он захватывает вражеский бронепоезд, подрывает железнодорожный мост…





Исходник: DVD5 R5
Тип релиза: DVDRip
Контейнер: AVI

Видео: 688x384 (16:9), 25 fps, XviD ~ 976 kbps avg, 0.148 bit/pixel
Аудио: 48 kHz, Dolby AC3 5.1, 448 kbps
Общее
Полное имя : Dachnaya.poezdka.serzhanta.Cybuli.1979.DVDRip_[Youtracker]_by_AVP Studio.avi
Формат : AVI
Формат/Информация : Audio Video Interleave
Размер файла : 744 Мбайт
Продолжительность : 1 ч. 12 м.
Общий поток : 1433 Кбит/сек
Программа кодирования : VirtualDubModRus 1.5.10.2 (build 2542/release)
Библиотека кодирования : VirtualDubMod build 2542/release

Видео
Идентификатор : 0
Формат : MPEG-4 Visual
Профиль формата : Advanced Simple@L5
Параметр BVOP формата : 1
Параметр QPel формата : Нет
Параметр GMC формата : Без точки перехода
Параметр матрицы формата : Выборочная
Идентификатор кодека : XVID
Идентификатор кодека/Подсказка : XviD
Продолжительность : 1 ч. 12 м.
Битрейт : 976 Кбит/сек
Ширина : 688 пикселей
Высота : 384 пикселя
Соотношение сторон : 16:9
Частота кадров : 25,000 кадров/сек
Цветовое пространство : YUV
Субдискретизация насыщенности : 4:2:0
Битовая глубина : 8 бит
Тип развёртки : Прогрессивная
Метод сжатия : С потерями
Бит/(Пиксели*Кадры) : 0.148
Размер потока : 506 Мбайт (68%)
Библиотека кодирования : XviD 73

Аудио
Идентификатор : 1
Формат : AC-3
Формат/Информация : Audio Coding 3
Расширение режима : CM (complete main)
Идентификатор кодека : 2000
Продолжительность : 1 ч. 12 м.
Вид битрейта : Постоянный
Битрейт : 448 Кбит/сек
Каналы : 6 каналов
Расположение каналов : Front: L C R, Side: L R, LFE
Частота : 48,0 КГц
Битовая глубина : 16 бит
Метод сжатия : С потерями
Размер потока : 232 Мбайт (31%)
Выравнивание : Разделение по промежуткам
Продолжительность промежутка : 40 мс. (1,00 видеокадр)
Время предзагрузки промежутка : 500 мс



В фильме использовалась песня Tarmo Pihlap ja Palderjan — Alpi lauluke
Цыбуля угоняет у немцев бронетранпортёр БТР-152, которые повились в СССР только в начале 1950-х годов.
Немцы ездят на советских грузовиках ЗИЛ-157К образца 1957 года. Также на их шасси показаны БМ-13 "Катюша".
В начале и конце фильма Цыбуля летит на Ан-2 , который появился только после войны. Кстати, этим грешат многие советские фильмы.
В первых кадрах можно увидеть что в одной из колонн советские бойцы вооружены автоматами Калашникова.
Противотанковая пушка послевоенная Т-12.



   Похожие торренты   Торрент   Размер 
В этой теме нет новых непрочитанных сообщений. Дачная поездка сержанта Цыбули (1979) DVDRip-AVC от New-Team

86 | 11

1.45 ГБ

В этой теме нет новых непрочитанных сообщений. Дачная поездка сержанта Цыбули (1979) DVDRip

81 | 11

1.37 ГБ

В этой теме нет новых непрочитанных сообщений. Дачная поездка сержанта Цыбули (1979) DVDRip - Files-x

4 | 12

1.46 ГБ

В этой теме нет новых непрочитанных сообщений. Дачная поездка сержанта Цыбули (1979) DVDRip от Alekxandr48

6 | 3

700.43 МБ

В этой теме нет новых непрочитанных сообщений. Дачная поездка сержанта Цыбули (1979) HDTVRip

224 | 26

743.18 МБ

В этой теме нет новых непрочитанных сообщений. Дачная поездка сержанта Цыбули (1979) HDTVRip от ImperiaFilm

40 | 5

1.33 ГБ

В этой теме нет новых непрочитанных сообщений. Дачная поездка сержанта Цыбули (1979) SATRip-AVC от ExKinoRay

105 | 5

1.21 ГБ




Вы не можете начинать темы
Вы не можете отвечать на сообщения
Вы не можете редактировать свои сообщения
Вы не можете удалять свои сообщения
Вы не можете добавлять вложения

Перейти:  
Для Мосгорсуда, Роскомнадзора и рекламодателей: mosgorsud-torrent[собачка]yandex.ru
 Вход
ppkBB3cker v.2 © 2008-2014 @ PPK
[ Time : 0.059s | 15 Queries | GZIP : Off ]

Торрент трекер RUTOR.IN, Не можете зайти на rutor.org? Какой новый адрес рутор? Какое зеркало рутор? Не работает rutor.org и зеркала? Тогда наш торрент специально для вас. Rutor.in неофициальное зеркало rutor. В случае если у Вас заблокирован rutor или вдруг Вы не можете на него зайти, то Вы без труда сможете скачать бесплатно и без рекламы последние новинки кино, игр, сериалов и прочего у нас, на Rutor.in. Не нужно использовать прокси, чтобы зайти на рутор, достаточно воспользоваться нашим ресурсом. Все новые фильмы, игры, сериалы, книги и музыка за 2013 и 2014 годы через торрент бесплатно. Скачивайте фильмы в хорошем качестве, игры для пк, xbox, playstation без регистрации. У нас вы найдете новые Зарубежные сериалы и Русские сериалы 2013, 2014, 2015 годов. Оставайтесь с нами, качайте любимые фильмы, игры, сериалы, книги и музыку.