img image001 image001 image001 image001 image001 image001 image001 image001 image001 image001 image001 image001 image001 image001 image001

Planets Sun Sun Sun
Статистика раздачи
Автор: PriZraK | Размер: 1.33 ГБ | Добавлен: 15 фев 2014
Раздают: 6    Качают: 3
Скачать торрент
Скачать торрент
Описание торрента

СообщениеДобавлено: 15 фев 2014 




Информация о фильме
Название: Не повезло
Год выхода: 2013
Жанр: фантастика, драма
Режиссер: Василий Шестовец

В ролях: Вадим Замараев, Михаил Марченко, Игорь Чернышёв, Александр Стрелков, Ольга Юренко, Борис Сазонов

О фильме:
Следователь Александр Гордеев пытается вывести на чистую воду подозрительно везучего человека - Артура Ваймана, на которого буквально сыплются различные выигрыши. Подозреваемый все списывает на свое природное везение и предлагает провести неформальный следственный эксперимент. Гордеев не верит Вайману даже когда лотерейные билеты, купленные на его глазах, оказываются выигрышными. Везунчик идет дальше и вручает следователю билет Всероссийской Федеральной лотереи с огромным джекпотом. Билет выигрывает! Ошеломленный полицейский уже готов поверить в аномальную удачу этого человека, когда снова сталкивается с ним в криминальных обстоятельствах. Кому повезет на этот раз?
Страна: Россия
Продолжительность: 00:47:37
Перевод: не требуется

Файл
Кодек: h.264
Качество: HDTVRip-AVC
Видео: 1280 x 528 (2,40:1), 25,000 fps, AVC MPEG4(x264), High@L4.1 ~3730 Kbps avg, 0.221 bit/pixel
Звук: 48 kHz, AC3 Dolby Digital, 6 ch (Front: L C R, Side: L R, LFE), ~192 kbps avg


Формат : Matroska
Версия формата : Version 2
Размер файла : 1,33 Гбайт
Продолжительность : 47 м.
Общий поток : 4001 Кбит/сек
Дата кодирования : UTC 2013-09-04 06:57:02
Программа кодирования : XviD4PSP 6.0 / 54.29.105
Библиотека кодирования : XviD4PSP 6.0 / 54.29.105

Видео
Идентификатор : 1
Формат : AVC
Формат/Информация : Advanced Video Codec
Профиль формата : High@L4.1
Параметр CABAC формата : Да
Параметр ReFrames формата : 3 кадра
Идентификатор кодека : V_MPEG4/ISO/AVC
Продолжительность : 47 м.
Битрейт : 3730 Кбит/сек
Номинальный битрейт : 4000 Кбит/сек
Ширина : 1280 пикселей
Высота : 528 пикселей
Соотношение сторон : 2,40:1
Режим частоты кадров : Переменный
Частота кадров : 25,000 кадров/сек
Цветовое пространство : YUV
Субдискретизация насыщенности : 4:2:0
Битовая глубина : 8 бит
Тип развёртки : Прогрессивная
Бит/(Пиксели*Кадры) : 0.221
Размер потока : 1,24 Гбайт (93%)
Библиотека кодирования : x264 core 128 r2216M 198a7ea
Настройки программы : cabac=1 / ref=3 / deblock=1:0:0 / analyse=0x3:0x133 / me=dia / subme=5 / psy=1 / psy_rd=1.00:0.20 / mixed_ref=1 / me_range=16 / chroma_me=1 / trellis=0 / 8x8dct=1 / cqm=0 / deadzone=21,11 / fast_pskip=1 / chroma_qp_offset=0 / threads=2 / lookahead_threads=1 / sliced_threads=0 / nr=0 / decimate=1 / interlaced=0 / bluray_compat=0 / constrained_intra=0 / bframes=3 / b_pyramid=1 / b_adapt=0 / b_bias=0 / direct=3 / weightb=1 / open_gop=0 / weightp=0 / keyint=250 / keyint_min=25 / scenecut=40 / intra_refresh=0 / rc_lookahead=40 / rc=cbr / mbtree=1 / bitrate=4000 / ratetol=1.0 / qcomp=0.60 / qpmin=10 / qpmax=51 / qpstep=4 / vbv_maxrate=4000 / vbv_bufsize=4000 / nal_hrd=none / ip_ratio=1.40 / aq=1:1.00

Аудио
Идентификатор : 2
Формат : AC-3
Формат/Информация : Audio Coding 3
Расширение режима : CM (complete main)
Идентификатор кодека : A_AC3
Продолжительность : 47 м.
Вид битрейта : Постоянный
Битрейт : 192 Кбит/сек
Каналы : 6 каналов
Расположение каналов : Front: L C R, Side: L R, LFE
Частота : 48,0 КГц
Битовая глубина : 16 бит
Метод сжатия : С потерями
Задержка видео : 27 мс.
Размер потока : 65,4 Мбайт (5%)
Язык : Russian



   Похожие торренты   Торрент   Размер 
В этой теме нет новых непрочитанных сообщений. Не повезло (2013) HDTVRip

18 | 6

689.85 МБ

В этой теме нет новых непрочитанных сообщений. Не повезло (2013) HDTV 1080p

3 | 2

3.42 ГБ

В этой теме нет новых непрочитанных сообщений. Просто повезло (2007) DVDRip

191 | 15

1.37 ГБ

В этой теме нет новых непрочитанных сообщений. Джентльмены, которым не повезло (1977) SATRip от старпёра

17 | 6

870.1 МБ

В этой теме нет новых непрочитанных сообщений. Джентльмены, которым не повезло (1977) DVDRip от Кинорадиомагия

193 | 96

509.75 МБ

В этой теме нет новых непрочитанных сообщений. Просто так повезло / Just My Luck (1957) DVDRip от egoleshik | P2

3 | 4

1.37 ГБ

В этой теме нет новых непрочитанных сообщений. Легкая атлетика. Бриллиантовая Лига 2013 / Diamond League 2013. Этап 03. Нью-Йорк (США) (2013) HDTVRip

0 | 1

1.82 ГБ




Вы не можете начинать темы
Вы не можете отвечать на сообщения
Вы не можете редактировать свои сообщения
Вы не можете удалять свои сообщения
Вы не можете добавлять вложения

Перейти:  
Для Мосгорсуда, Роскомнадзора и рекламодателей: mosgorsud-torrent[собачка]yandex.ru
 Вход
ppkBB3cker v.2 © 2008-2014 @ PPK
[ Time : 0.031s | 16 Queries | GZIP : Off ]

Торрент трекер RUTOR.IN, Не можете зайти на rutor.org? Какой новый адрес рутор? Какое зеркало рутор? Не работает rutor.org и зеркала? Тогда наш торрент специально для вас. Rutor.in неофициальное зеркало rutor. В случае если у Вас заблокирован rutor или вдруг Вы не можете на него зайти, то Вы без труда сможете скачать бесплатно и без рекламы последние новинки кино, игр, сериалов и прочего у нас, на Rutor.in. Не нужно использовать прокси, чтобы зайти на рутор, достаточно воспользоваться нашим ресурсом. Все новые фильмы, игры, сериалы, книги и музыка за 2013 и 2014 годы через торрент бесплатно. Скачивайте фильмы в хорошем качестве, игры для пк, xbox, playstation без регистрации. У нас вы найдете новые Зарубежные сериалы и Русские сериалы 2013, 2014, 2015 годов. Оставайтесь с нами, качайте любимые фильмы, игры, сериалы, книги и музыку.
cron