img image001 image001 image001 image001 image001 image001 image001 image001 image001 image001 image001 image001 image001 image001 image001

Planets Sun Sun Sun
Статистика раздачи
Автор: PriZraK | Размер: 745.15 МБ | Добавлен: 15 фев 2014
Раздают: 5    Качают: 4
Скачать торрент
Скачать торрент
Описание торрента

СообщениеДобавлено: 15 фев 2014 


#77
Страна: СССР
Производство: Мосфильм
Жанр: детектив, криминал
Год выпуска: 1973
Продолжительность: 01:30:42

Перевод: не требуется
Оригинальная аудиодорожка: русский
Cубтитры: нет

Режиссер: Анатолий Бобровский

В ролях:
Всеволод Санаев, Николай Гриценко, Тамара Семина, Раиса Куркина, Владимир Носик, Александр Калягин, Павел Панков, Геннадий Корольков, Игорь Кашинцев, Феликс Яворский, Ольга Науменко, Дмитрий Масанов, Герберт Дмитриев, Юрий Мартынов, Виктор Маркин, Елена Вольская, Юрий Соковнин...

Описание:
Полковник Зорин, знакомый зрителям по фильму «Возвращение «Святого Луки», расследует очередное преступление. Неизвестными совершено дерзкое ограбление. На этот раз из ценнейшей коллекции похищен уникальный бриллиант «Черный принц». Этот камень стоит баснословную сумму денег…





Исходник: DVD5 R5
Тип релиза: DVDRip
Контейнер: AVI

Видео: 672x304 (2,2:1), 25 fps, XviD ~ 947 kbps avg, 0.185 bit/pixel
Аудио: 48 kHz, Dolby AC3 2.0, 192 kbps
Общее
Полное имя : Chernyy.princ.1973.DVDRip_ Youtracker _by_AVP Studio.avi
Формат : AVI
Формат/Информация : Audio Video Interleave
Размер файла : 745 Мбайт
Продолжительность : 1 ч. 30 м.
Общий поток : 1149 Кбит/сек
Программа кодирования : VirtualDubModRus 1.5.10.2 (build 2542/release)
Библиотека кодирования : VirtualDubMod build 2542/release

Видео
Идентификатор : 0
Формат : MPEG-4 Visual
Профиль формата : Advanced Simple@L5
Параметр BVOP формата : 1
Параметр QPel формата : Нет
Параметр GMC формата : Без точки перехода
Параметр матрицы формата : Выборочная
Идентификатор кодека : XVID
Идентификатор кодека/Подсказка : XviD
Продолжительность : 1 ч. 30 м.
Битрейт : 947 Кбит/сек
Ширина : 672 пикселя
Высота : 304 пикселя
Соотношение сторон : 2,2:1
Частота кадров : 25,000 кадров/сек
Цветовое пространство : YUV
Субдискретизация насыщенности : 4:2:0
Битовая глубина : 8 бит
Тип развёртки : Прогрессивная
Метод сжатия : С потерями
Бит/(Пиксели*Кадры) : 0.185
Размер потока : 614 Мбайт (82%)
Библиотека кодирования : XviD 73

Аудио
Идентификатор : 1
Формат : AC-3
Формат/Информация : Audio Coding 3
Расширение режима : CM (complete main)
Идентификатор кодека : 2000
Продолжительность : 1 ч. 30 м.
Вид битрейта : Постоянный
Битрейт : 192 Кбит/сек
Каналы : 2 канала
Расположение каналов : Front: L R
Частота : 48,0 КГц
Битовая глубина : 16 бит
Метод сжатия : С потерями
Размер потока : 125 Мбайт (17%)
Выравнивание : Разделение по промежуткам
Продолжительность промежутка : 40 мс. (1,00 видеокадр)
Время предзагрузки промежутка : 500 мс



Возвращение «Святого Луки» (1970)
Чёрный принц (1973)
Версия полковника Зорина (1978)



   Похожие торренты   Торрент   Размер 
В этой теме нет новых непрочитанных сообщений. Черный принц (1973) DVDRip-AVC от New-Team

57 | 8

745.34 МБ

В этой теме нет новых непрочитанных сообщений. Чёрный принц (1973) DVDRip от SergV

119 | 33

1.37 ГБ

В этой теме нет новых непрочитанных сообщений. Черный принц Аджуба / Ajooba (1989) DVDRip

9 | 6

2.05 ГБ

В этой теме нет новых непрочитанных сообщений. Черный принц Аджуба / Ajooba [01-02 из 02] (1989) DVDRip от Generalfilm

71 | 16

1.37 ГБ

В этой теме нет новых непрочитанных сообщений. Чёрный принц - Дискография [3 Альбома] (1990-1993) MP3

1 | 9

182.44 МБ

В этой теме нет новых непрочитанных сообщений. Чёрный принц - Русский мужик (1992) FLAC

2 | 2

1.14 ГБ

В этой теме нет новых непрочитанных сообщений. Принц и нищий (1942) DVDRip от New-Team

61 | 3

745.05 МБ




Вы не можете начинать темы
Вы не можете отвечать на сообщения
Вы не можете редактировать свои сообщения
Вы не можете удалять свои сообщения
Вы не можете добавлять вложения

Перейти:  
Для Мосгорсуда, Роскомнадзора и рекламодателей: mosgorsud-torrent[собачка]yandex.ru
 Вход
ppkBB3cker v.2 © 2008-2014 @ PPK
[ Time : 2.777s | 15 Queries | GZIP : Off ]

Торрент трекер RUTOR.IN, Не можете зайти на rutor.org? Какой новый адрес рутор? Какое зеркало рутор? Не работает rutor.org и зеркала? Тогда наш торрент специально для вас. Rutor.in неофициальное зеркало rutor. В случае если у Вас заблокирован rutor или вдруг Вы не можете на него зайти, то Вы без труда сможете скачать бесплатно и без рекламы последние новинки кино, игр, сериалов и прочего у нас, на Rutor.in. Не нужно использовать прокси, чтобы зайти на рутор, достаточно воспользоваться нашим ресурсом. Все новые фильмы, игры, сериалы, книги и музыка за 2013 и 2014 годы через торрент бесплатно. Скачивайте фильмы в хорошем качестве, игры для пк, xbox, playstation без регистрации. У нас вы найдете новые Зарубежные сериалы и Русские сериалы 2013, 2014, 2015 годов. Оставайтесь с нами, качайте любимые фильмы, игры, сериалы, книги и музыку.