img image001 image001 image001 image001 image001 image001 image001 image001 image001 image001 image001 image001 image001 image001 image001

Planets Sun Sun Sun
Статистика раздачи
Автор: PriZraK | Размер: 745.34 МБ | Добавлен: 15 фев 2014
Раздают: 57    Качают: 8
Скачать торрент
Скачать торрент
Описание торрента

СообщениеДобавлено: 15 фев 2014 


#77
Страна: СССР
Производство: Мосфильм
Жанр: детектив, криминал
Год выпуска: 1973
Продолжительность: 01:30:42

Перевод: не требуется
Оригинальная аудиодорожка: русский
Cубтитры: нет

Режиссер: Анатолий Бобровский

В ролях:
Всеволод Санаев, Николай Гриценко, Тамара Семина, Раиса Куркина, Владимир Носик, Александр Калягин, Павел Панков, Геннадий Корольков, Игорь Кашинцев, Феликс Яворский, Ольга Науменко, Дмитрий Масанов, Герберт Дмитриев, Юрий Мартынов, Виктор Маркин, Елена Вольская, Юрий Соковнин...

Описание:
Полковник Зорин, знакомый зрителям по фильму «Возвращение «Святого Луки», расследует очередное преступление. Неизвестными совершено дерзкое ограбление. На этот раз из ценнейшей коллекции похищен уникальный бриллиант «Черный принц». Этот камень стоит баснословную сумму денег…





Исходник: DVD5 R5
Тип релиза: DVDRip-AVC
Контейнер: MKV

Видео: 672->716x328 (2,2:1), 25 fps, H264 ~ 955 kbps avg, 0.173 bit/pixel
Аудио: 48 kHz, Dolby AC3 2.0, 192 kbps
Общее
Полное имя : Chernyy.princ.1973.DVDRip-AVC_ Youtracker _by_AVP Studio.mkv
Формат : Matroska
Версия формата : Version 2
Размер файла : 745 Мбайт
Продолжительность : 1 ч. 30 м.
Общий поток : 1149 Кбит/сек
Дата кодирования : UTC 2013-10-08 01:55:33
Программа кодирования : mkvmerge v6.1.0 ('Old Devil') built on Mar 4 2013 09:10:42
Библиотека кодирования : libebml v1.3.0 + libmatroska v1.4.0

Видео
Идентификатор : 1
Формат : AVC
Формат/Информация : Advanced Video Codec
Профиль формата : High@L4.1
Параметр CABAC формата : Да
Параметр ReFrames формата : 6 кадров
Идентификатор кодека : V_MPEG4/ISO/AVC
Продолжительность : 1 ч. 30 м.
Битрейт : 955 Кбит/сек
Ширина : 672 пикселя
Высота : 328 пикселей
Соотношение сторон : 2,2:1
Соотношение сторон в оригинале : 2,2:1
Частота кадров : 25,000 кадров/сек
Цветовое пространство : YUV
Субдискретизация насыщенности : 4:2:0
Битовая глубина : 8 бит
Тип развёртки : Прогрессивная
Бит/(Пиксели*Кадры) : 0.173
Размер потока : 606 Мбайт (81%)
Библиотека кодирования : x264 core 138 r2356 a1d3d17
Настройки программы : cabac=1 / ref=6 / deblock=1:-2:-1 / analyse=0x3:0x113 / me=umh / subme=10 / psy=1 / psy_rd=1.00:0.05 / mixed_ref=1 / me_range=32 / chroma_me=1 / trellis=2 / 8x8dct=1 / cqm=0 / deadzone=21,11 / fast_pskip=0 / chroma_qp_offset=-3 / threads=3 / lookahead_threads=1 / sliced_threads=0 / nr=0 / decimate=0 / interlaced=0 / bluray_compat=0 / constrained_intra=0 / bframes=8 / b_pyramid=2 / b_adapt=2 / b_bias=0 / direct=3 / weightb=1 / open_gop=0 / weightp=2 / keyint=250 / keyint_min=25 / scenecut=40 / intra_refresh=0 / rc=2pass / mbtree=0 / bitrate=955 / ratetol=1.0 / qcomp=0.60 / qpmin=0 / qpmax=69 / qpstep=4 / cplxblur=20.0 / qblur=0.5 / ip_ratio=1.40 / pb_ratio=1.30 / aq=1:1.00
Default : Да
Forced : Нет

Аудио
Идентификатор : 2
Формат : AC-3
Формат/Информация : Audio Coding 3
Расширение режима : CM (complete main)
Идентификатор кодека : A_AC3
Продолжительность : 1 ч. 30 м.
Вид битрейта : Постоянный
Битрейт : 192 Кбит/сек
Каналы : 2 канала
Расположение каналов : Front: L R
Частота : 48,0 КГц
Битовая глубина : 16 бит
Метод сжатия : С потерями
Размер потока : 125 Мбайт (17%)
Default : Да
Forced : Нет



Возвращение «Святого Луки» (1970)
Чёрный принц (1973)
Версия полковника Зорина (1978)



   Похожие торренты   Торрент   Размер 
В этой теме нет новых непрочитанных сообщений. Черный принц (1973) DVDRip от New-Team

5 | 4

745.15 МБ

В этой теме нет новых непрочитанных сообщений. Чёрный принц (1973) DVDRip от SergV

119 | 33

1.37 ГБ

В этой теме нет новых непрочитанных сообщений. Черный принц Аджуба / Ajooba (1989) DVDRip

9 | 6

2.05 ГБ

В этой теме нет новых непрочитанных сообщений. Черный принц Аджуба / Ajooba [01-02 из 02] (1989) DVDRip от Generalfilm

71 | 16

1.37 ГБ

В этой теме нет новых непрочитанных сообщений. Чёрный принц - Русский мужик (1992) FLAC

2 | 2

1.14 ГБ

В этой теме нет новых непрочитанных сообщений. Чёрный принц - Дискография [3 Альбома] (1990-1993) MP3

1 | 9

182.44 МБ

В этой теме нет новых непрочитанных сообщений. Принц и нищий (1942) DVDRip от New-Team

61 | 3

745.05 МБ




Вы не можете начинать темы
Вы не можете отвечать на сообщения
Вы не можете редактировать свои сообщения
Вы не можете удалять свои сообщения
Вы не можете добавлять вложения

Перейти:  
Для Мосгорсуда, Роскомнадзора и рекламодателей: mosgorsud-torrent[собачка]yandex.ru
 Вход
ppkBB3cker v.2 © 2008-2014 @ PPK
[ Time : 4.570s | 15 Queries | GZIP : On ]

Торрент трекер RUTOR.IN, Не можете зайти на rutor.org? Какой новый адрес рутор? Какое зеркало рутор? Не работает rutor.org и зеркала? Тогда наш торрент специально для вас. Rutor.in неофициальное зеркало rutor. В случае если у Вас заблокирован rutor или вдруг Вы не можете на него зайти, то Вы без труда сможете скачать бесплатно и без рекламы последние новинки кино, игр, сериалов и прочего у нас, на Rutor.in. Не нужно использовать прокси, чтобы зайти на рутор, достаточно воспользоваться нашим ресурсом. Все новые фильмы, игры, сериалы, книги и музыка за 2013 и 2014 годы через торрент бесплатно. Скачивайте фильмы в хорошем качестве, игры для пк, xbox, playstation без регистрации. У нас вы найдете новые Зарубежные сериалы и Русские сериалы 2013, 2014, 2015 годов. Оставайтесь с нами, качайте любимые фильмы, игры, сериалы, книги и музыку.