img image001 image001 image001 image001 image001 image001 image001 image001 image001 image001 image001 image001 image001 image001 image001

Planets Sun Sun Sun
Статистика раздачи
Автор: PriZraK | Размер: 1.46 ГБ | Добавлен: 15 фев 2014
Раздают: 40    Качают: 5
Скачать торрент
Скачать торрент
Описание торрента

СообщениеДобавлено: 15 фев 2014 


#77
Страна: СССР
Производство: Студия Горького
Жанр: приключения, биография, военный
Год выпуска: 1978
Продолжительность: 01:25:17

Перевод: не требуется
Оригинальная аудиодорожка: русский
Cубтитры: нет

Режиссер: Владимир Саруханов

В ролях:
Андрей Ростоцкий, Иван Краско, Герман Качин, Юрий Майнагашев, Олег Балакин, Асанкул Куттубаев, Светлана Чаптыкова, Виталий Канзычаков, Нина Саруханова, Алексей Махайлов, Юрий Котюшев, Георгий Юматов...

Описание:
1922 год — время, когда в Хакасии шли изнурительные бои красных с бандой атамана Соловьева. Фильм воспроизводит одну из малоизвестных страниц биографии Аркадия Гайдара (Голикова), когда он юношей был назначен командиром отряда ЧОНа (частей особого назначения)…





Исходник: DVD5 R5
Тип релиза: DVDRip
Контейнер: AVI

Видео: 720x384 (1,875:1), 25 fps, XviD ~ 2052 kbps avg, 0.297 bit/pixel
Аудио: 48 kHz, Dolby AC3 5.1, 384 kbps
Общее
Полное имя : Konec.imperatora.taygi.1978.DVDRip_[Youtracker]_by_AVP Studio.avi
Формат : AVI
Формат/Информация : Audio Video Interleave
Размер файла : 1,46 Гбайт
Продолжительность : 1 ч. 25 м.
Общий поток : 2445 Кбит/сек
Программа кодирования : VirtualDubModRus 1.5.10.2 (build 2542/release)
Библиотека кодирования : VirtualDubMod build 2542/release

Видео
Идентификатор : 0
Формат : MPEG-4 Visual
Профиль формата : Advanced Simple@L5
Параметр BVOP формата : 1
Параметр QPel формата : Нет
Параметр GMC формата : Без точки перехода
Параметр матрицы формата : Выборочная
Идентификатор кодека : XVID
Идентификатор кодека/Подсказка : XviD
Продолжительность : 1 ч. 25 м.
Битрейт : 2052 Кбит/сек
Ширина : 720 пикселей
Высота : 384 пикселя
Соотношение сторон : 1,875
Частота кадров : 25,000 кадров/сек
Цветовое пространство : YUV
Субдискретизация насыщенности : 4:2:0
Битовая глубина : 8 бит
Тип развёртки : Прогрессивная
Метод сжатия : С потерями
Бит/(Пиксели*Кадры) : 0.297
Размер потока : 1,22 Гбайт (84%)
Библиотека кодирования : XviD 73

Аудио
Идентификатор : 1
Формат : AC-3
Формат/Информация : Audio Coding 3
Расширение режима : CM (complete main)
Идентификатор кодека : 2000
Продолжительность : 1 ч. 25 м.
Вид битрейта : Постоянный
Битрейт : 384 Кбит/сек
Каналы : 6 каналов
Расположение каналов : Front: L C R, Side: L R, LFE
Частота : 48,0 КГц
Битовая глубина : 16 бит
Метод сжатия : С потерями
Размер потока : 234 Мбайт (16%)
Выравнивание : Разделение по промежуткам
Продолжительность промежутка : 40 мс. (1,00 видеокадр)
Время предзагрузки промежутка : 500 мс





   Похожие торренты   Торрент   Размер 
В этой теме нет новых непрочитанных сообщений. Конец императора тайги (1978) DVDRip-AVC от New-Team

13 | 4

1.46 ГБ

В этой теме нет новых непрочитанных сообщений. Конец императора тайги (1978) DVDRip от New-Team

18 | 3

744.72 МБ

В этой теме нет новых непрочитанных сообщений. Конец императора тайги (1978) DVDRip

5 | 2

1.46 ГБ

В этой теме нет новых непрочитанных сообщений. Конец императора тайги (1978) DVDRip от Odyzic и MyWorldFilm

6 | 3

634.49 МБ

В этой теме нет новых непрочитанных сообщений. Конец императора тайги (1978) DVD5

2 | 5

4.36 ГБ

В этой теме нет новых непрочитанных сообщений. Конец света в нашей супружеской постели в одну из дождливых ночей / La fine del mondo nel nostro solito letto... (1978) DVDRip | P2

68 | 15

1.46 ГБ

В этой теме нет новых непрочитанных сообщений. Конец / The End (1978) BDRemux 1080p | P2

1 | 33

22.4 ГБ




Вы не можете начинать темы
Вы не можете отвечать на сообщения
Вы не можете редактировать свои сообщения
Вы не можете удалять свои сообщения
Вы не можете добавлять вложения

Перейти:  
Для Мосгорсуда, Роскомнадзора и рекламодателей: mosgorsud-torrent[собачка]yandex.ru
 Вход
ppkBB3cker v.2 © 2008-2014 @ PPK
[ Time : 0.066s | 15 Queries | GZIP : Off ]

Торрент трекер RUTOR.IN, Не можете зайти на rutor.org? Какой новый адрес рутор? Какое зеркало рутор? Не работает rutor.org и зеркала? Тогда наш торрент специально для вас. Rutor.in неофициальное зеркало rutor. В случае если у Вас заблокирован rutor или вдруг Вы не можете на него зайти, то Вы без труда сможете скачать бесплатно и без рекламы последние новинки кино, игр, сериалов и прочего у нас, на Rutor.in. Не нужно использовать прокси, чтобы зайти на рутор, достаточно воспользоваться нашим ресурсом. Все новые фильмы, игры, сериалы, книги и музыка за 2013 и 2014 годы через торрент бесплатно. Скачивайте фильмы в хорошем качестве, игры для пк, xbox, playstation без регистрации. У нас вы найдете новые Зарубежные сериалы и Русские сериалы 2013, 2014, 2015 годов. Оставайтесь с нами, качайте любимые фильмы, игры, сериалы, книги и музыку.