img image001 image001 image001 image001 image001 image001 image001 image001 image001 image001 image001 image001 image001 image001 image001

Planets Sun Sun Sun
Статистика раздачи
Автор: PriZraK | Размер: 744.72 МБ | Добавлен: 15 фев 2014
Раздают: 19    Качают: 3
Скачать торрент
Скачать торрент
Описание торрента

СообщениеДобавлено: 15 фев 2014 


#77
Страна: СССР
Производство: Студия Горького
Жанр: приключения, биография, военный
Год выпуска: 1978
Продолжительность: 01:25:17

Перевод: не требуется
Оригинальная аудиодорожка: русский
Cубтитры: нет

Режиссер: Владимир Саруханов

В ролях:
Андрей Ростоцкий, Иван Краско, Герман Качин, Юрий Майнагашев, Олег Балакин, Асанкул Куттубаев, Светлана Чаптыкова, Виталий Канзычаков, Нина Саруханова, Алексей Махайлов, Юрий Котюшев, Георгий Юматов...

Описание:
1922 год — время, когда в Хакасии шли изнурительные бои красных с бандой атамана Соловьева. Фильм воспроизводит одну из малоизвестных страниц биографии Аркадия Гайдара (Голикова), когда он юношей был назначен командиром отряда ЧОНа (частей особого назначения)…





Исходник: DVD5 R5
Тип релиза: DVDRip
Контейнер: AVI

Видео: 720x384 (1,875:1), 25 fps, XviD ~ 1083 kbps avg, 0.157 bit/pixel
Аудио: 48 kHz, MP3 2.0, 128 kbps
Общее
Полное имя : Konec.imperatora.taygi.1978.DVDRip-745_[Youtracker]_by_AVP Studio.avi
Формат : AVI
Формат/Информация : Audio Video Interleave
Размер файла : 745 Мбайт
Продолжительность : 1 ч. 25 м.
Общий поток : 1221 Кбит/сек
Программа кодирования : VirtualDubModRus 1.5.10.2 (build 2542/release)
Библиотека кодирования : VirtualDubMod build 2542/release

Видео
Идентификатор : 0
Формат : MPEG-4 Visual
Профиль формата : Advanced Simple@L5
Параметр BVOP формата : 1
Параметр QPel формата : Нет
Параметр GMC формата : Без точки перехода
Параметр матрицы формата : Выборочная
Идентификатор кодека : XVID
Идентификатор кодека/Подсказка : XviD
Продолжительность : 1 ч. 25 м.
Битрейт : 1083 Кбит/сек
Ширина : 720 пикселей
Высота : 384 пикселя
Соотношение сторон : 1,875
Частота кадров : 25,000 кадров/сек
Цветовое пространство : YUV
Субдискретизация насыщенности : 4:2:0
Битовая глубина : 8 бит
Тип развёртки : Прогрессивная
Метод сжатия : С потерями
Бит/(Пиксели*Кадры) : 0.157
Размер потока : 661 Мбайт (89%)
Библиотека кодирования : XviD 73

Аудио
Идентификатор : 1
Формат : MPEG Audio
Версия формата : Version 1
Профиль формата : Layer 3
Идентификатор кодека : 55
Идентификатор кодека/Подсказка : MP3
Продолжительность : 1 ч. 25 м.
Вид битрейта : Постоянный
Битрейт : 128 Кбит/сек
Каналы : 2 канала
Частота : 48,0 КГц
Метод сжатия : С потерями
Размер потока : 78,1 Мбайт (10%)
Выравнивание : Соединение по промежуткам
Продолжительность промежутка : 40 мс. (1,00 видеокадр)
Время предзагрузки промежутка : 504 мс.
Библиотека кодирования : LAME3.99r
Настройки программы : -m s -V 4 -q 2 -lowpass 17 -b 128





   Похожие торренты   Торрент   Размер 
В этой теме нет новых непрочитанных сообщений. Конец императора тайги (1978) DVDRip от New-Team

41 | 5

1.46 ГБ

В этой теме нет новых непрочитанных сообщений. Конец императора тайги (1978) DVDRip-AVC от New-Team

13 | 4

1.46 ГБ

В этой теме нет новых непрочитанных сообщений. Конец императора тайги (1978) DVDRip

5 | 2

1.46 ГБ

В этой теме нет новых непрочитанных сообщений. Конец императора тайги (1978) DVDRip от Odyzic и MyWorldFilm

6 | 3

634.49 МБ

В этой теме нет новых непрочитанных сообщений. Конец императора тайги (1978) DVD5

2 | 5

4.36 ГБ

В этой теме нет новых непрочитанных сообщений. Конец света в нашей супружеской постели в одну из дождливых ночей / La fine del mondo nel nostro solito letto... (1978) DVDRip | P2

51 | 9

1.46 ГБ

В этой теме нет новых непрочитанных сообщений. Конец / The End (1978) BDRemux 1080p | P2

0 | 4

22.4 ГБ




Вы не можете начинать темы
Вы не можете отвечать на сообщения
Вы не можете редактировать свои сообщения
Вы не можете удалять свои сообщения
Вы не можете добавлять вложения

Перейти:  
Для Мосгорсуда, Роскомнадзора и рекламодателей: mosgorsud-torrent[собачка]yandex.ru
 Вход
ppkBB3cker v.2 © 2008-2014 @ PPK
[ Time : 0.056s | 16 Queries | GZIP : Off ]

Торрент трекер RUTOR.IN, Не можете зайти на rutor.org? Какой новый адрес рутор? Какое зеркало рутор? Не работает rutor.org и зеркала? Тогда наш торрент специально для вас. Rutor.in неофициальное зеркало rutor. В случае если у Вас заблокирован rutor или вдруг Вы не можете на него зайти, то Вы без труда сможете скачать бесплатно и без рекламы последние новинки кино, игр, сериалов и прочего у нас, на Rutor.in. Не нужно использовать прокси, чтобы зайти на рутор, достаточно воспользоваться нашим ресурсом. Все новые фильмы, игры, сериалы, книги и музыка за 2013 и 2014 годы через торрент бесплатно. Скачивайте фильмы в хорошем качестве, игры для пк, xbox, playstation без регистрации. У нас вы найдете новые Зарубежные сериалы и Русские сериалы 2013, 2014, 2015 годов. Оставайтесь с нами, качайте любимые фильмы, игры, сериалы, книги и музыку.
cron