img image001 image001 image001 image001 image001 image001 image001 image001 image001 image001 image001 image001 image001 image001 image001

Planets Sun Sun Sun
Статистика раздачи
Автор: PriZraK | Размер: 1.44 ГБ | Добавлен: 15 фев 2014
Раздают: 31    Качают: 11
Скачать торрент
Скачать торрент
Описание торрента

СообщениеДобавлено: 15 фев 2014 


#77
Страна: СССР
Производство: Одесская киностудия
Жанр: приключения, военный
Год выпуска: 1978
Продолжительность: 01:12:12

Перевод: не требуется
Оригинальная аудиодорожка: русский
Cубтитры: нет

Режиссер: Вадим Лысенко

В ролях:
Леонхард Мерзин, Павел Ремезов, Леонид Шумский, Улдис Пуцитис, Элгуджа Бурдули, Сергей Иванов, Марина Трошина, Улдис Лиелдидж, Юрий Пузырёв, Ольгерт Кродерс, Александр Тартышников, Валерий Иняткин, Юрий Муравицкий, Валерий Полетаев, Борис Руднев, Марина Самойлова, Аркадий Свидерский, Марк Толмачев, Олег Федулов...

Описание:
Во время Великой Отечественной войны на переправе затонула «Катюша», наше новейшее секретное оружие. Чтобы установка не попала в руки врага, командование принимает решение уничтожить её силами отряда особого назначения (так как район происшествия уже занят оккупантами, а бомбардировка с воздуха не гарантирует уничтожения).
Привлекается специальная группа из спортсменов и цирковых артистов, умеющих как никто другой снайперски стрелять, бегать, прыгать, свободно чувствовать себя в воде и под водой, выдерживать чудовищную нагрузку рукопашных схваток. В состав группы входит и девушка.
Переодетые в немецкую форму, они на трофейном бронетранспортёре рвутся к искомой точке, обходя препятствия (немцы уже знают о группе и ведут погоню). Задача будет выполнена.…





Исходник: DVD5 R5
Тип релиза: DVDRip
Контейнер: AVI

Видео: 704x304 (2,35:1), 25 fps, XviD ~ 2400 kbps avg, 0.449 bit/pixel
Аудио: 48 kHz, Dolby AC3 5.1, 448 kbps
Общее
Полное имя : Otryad.osobogo.naznacheniya.1978.DVDRip_[Youtracker]_by_AVP Studio.avi
Формат : AVI
Формат/Информация : Audio Video Interleave
Размер файла : 1,44 Гбайт
Продолжительность : 1 ч. 12 м.
Общий поток : 2857 Кбит/сек
Программа кодирования : VirtualDubModRus 1.5.10.2 (build 2542/release)
Библиотека кодирования : VirtualDubMod build 2542/release

Видео
Идентификатор : 0
Формат : MPEG-4 Visual
Профиль формата : Advanced Simple@L5
Параметр BVOP формата : 1
Параметр QPel формата : Нет
Параметр GMC формата : Без точки перехода
Параметр матрицы формата : Выборочная
Идентификатор кодека : XVID
Идентификатор кодека/Подсказка : XviD
Продолжительность : 1 ч. 12 м.
Битрейт : 2400 Кбит/сек
Ширина : 704 пикселя
Высота : 304 пикселя
Соотношение сторон : 2,35:1
Частота кадров : 25,000 кадров/сек
Цветовое пространство : YUV
Субдискретизация насыщенности : 4:2:0
Битовая глубина : 8 бит
Тип развёртки : Прогрессивная
Метод сжатия : С потерями
Бит/(Пиксели*Кадры) : 0.449
Размер потока : 1,21 Гбайт (84%)
Библиотека кодирования : XviD 73

Аудио
Идентификатор : 1
Формат : AC-3
Формат/Информация : Audio Coding 3
Расширение режима : CM (complete main)
Идентификатор кодека : 2000
Продолжительность : 1 ч. 12 м.
Вид битрейта : Постоянный
Битрейт : 448 Кбит/сек
Каналы : 6 каналов
Расположение каналов : Front: L C R, Side: L R, LFE
Частота : 48,0 КГц
Битовая глубина : 16 бит
Метод сжатия : С потерями
Размер потока : 231 Мбайт (16%)
Выравнивание : Разделение по промежуткам
Продолжительность промежутка : 40 мс. (1,00 видеокадр)
Время предзагрузки промежутка : 500 мс



События в фильме относятся к 1941 или 1942 году. В эти годы реактивные миномёты устанавливались на машинах ЗИС-5 и ЗИС-6. В фильме же показана установка на базе автомобиля ЗИС-150, который выпускался с 1947 г.
Немецкий трёхосный бронеавтомобиль (роль которого исполняет советский послевоенный БТР-152) в действительности встречался чрезвычайно редко. В Германии в 1937 г. было произведено лишь 10 таких трёхосных бронемашин Sd.Kfz.247 и они использовались только в разведподразделениях. Эти бронетранспортёры не имели штатного вооружения.
В начале кинофильма показаны БМ-13 на базе автомобиля ЗИС-151 (выпускался с 1948 по 1958 год, с 26 июня 1956 в связи с переименованием завода выпускался под маркой ЗИЛ-151) , а утопленная пусковая установка смонтирована на базе автомобиля ЗИЛ-157 (выпускался с 1958 по 1994 год). Пусковая установка принимавшая участие в съёмках состояла в штате реактивного дивизиона тираспольского артиллерийского полка и являлась системой заменителем при проведении учебных артиллерийских стрельб. По окончании съёмок фильмы была отправлена в ремонт. В ходе ремонта автомобильная база была заменена на ЗИЛ-131 и пусковая установка была возвращена в воинскую часть, где продолжила службу в качестве системы заменителя. Пусковые установки БМ-13 на базе автомобиля ЗИС-5 из за короткой базы не производились. На шасси ЗИС-5 монтировались только БМ-8-36.
Герой Павла Ремезова вооружён пистолетом Марголина, который был сконструирован только в 1948 году.
Ремейк 2013 — Привет от «Катюши»



   Похожие торренты   Торрент   Размер 
В этой теме нет новых непрочитанных сообщений. Отряд особого назначения (1978) DVDRip-AVC от New-Team

8 | 6

745.21 МБ

В этой теме нет новых непрочитанных сообщений. Отряд особого назначения (1978) DVDRip от New-Team

5 | 3

744.84 МБ

В этой теме нет новых непрочитанных сообщений. Отряд особого назначения (1978) DVDRip

90 | 28

697.3 МБ

В этой теме нет новых непрочитанных сообщений. Отряд особого назначения (1978) DVDRip от KinoZalSat

56 | 9

1.08 ГБ

В этой теме нет новых непрочитанных сообщений. Отряд особого назначения / Forces speciales (2011) DVDRip | Лицензия

18 | 2

705.39 МБ

В этой теме нет новых непрочитанных сообщений. Отряд особого назначения / Forces speciales (2011) DVDRip | КПК от Generalfilm

0 | 3

376.69 МБ

В этой теме нет новых непрочитанных сообщений. Отряд особого назначения / Forces speciales (2011) DVDRip-AVC от olegek70

30 | 10

1.37 ГБ




Вы не можете начинать темы
Вы не можете отвечать на сообщения
Вы не можете редактировать свои сообщения
Вы не можете удалять свои сообщения
Вы не можете добавлять вложения

Перейти:  
Для Мосгорсуда, Роскомнадзора и рекламодателей: mosgorsud-torrent[собачка]yandex.ru
 Вход
ppkBB3cker v.2 © 2008-2014 @ PPK
[ Time : 1.147s | 14 Queries | GZIP : Off ]

Торрент трекер RUTOR.IN, Не можете зайти на rutor.org? Какой новый адрес рутор? Какое зеркало рутор? Не работает rutor.org и зеркала? Тогда наш торрент специально для вас. Rutor.in неофициальное зеркало rutor. В случае если у Вас заблокирован rutor или вдруг Вы не можете на него зайти, то Вы без труда сможете скачать бесплатно и без рекламы последние новинки кино, игр, сериалов и прочего у нас, на Rutor.in. Не нужно использовать прокси, чтобы зайти на рутор, достаточно воспользоваться нашим ресурсом. Все новые фильмы, игры, сериалы, книги и музыка за 2013 и 2014 годы через торрент бесплатно. Скачивайте фильмы в хорошем качестве, игры для пк, xbox, playstation без регистрации. У нас вы найдете новые Зарубежные сериалы и Русские сериалы 2013, 2014, 2015 годов. Оставайтесь с нами, качайте любимые фильмы, игры, сериалы, книги и музыку.