img image001 image001 image001 image001 image001 image001 image001 image001 image001 image001 image001 image001 image001 image001 image001

Planets Sun Sun Sun
Статистика раздачи
Автор: PriZraK | Размер: 2.06 ГБ | Добавлен: 15 фев 2014
Раздают: 199    Качают: 12
Скачать торрент
Скачать торрент
Описание торрента

СообщениеДобавлено: 15 фев 2014 




Информация о фильме
Оригинальное название: Ярослав. Тысячу лет назад
Год выхода: 2010
Жанр: Приключения, история
Режиссер: Дмитрий Коробкин
В ролях: Александр Ивашкевич, Светлана Чуйкина, Алексей Кравченко, Виктор Вержбицкий, Валерий Золотухин, Павел Хрулев, Елена Плаксина, Юрий Ваксман, Владимир Терещенко, Фёдор Шувалов, Борис Токарев (II), Владимир Антоник, Константин Милованов, Сергей Генкин, Георгий Назаренко, Роман Курцын, Александр Гизгизов, Анора Халматова, Алексей Дмитриев (II), Дмитрий Уросов, Денис Ясик, Сергей Гурьев, Кирилл Болтаев, Кирилл Быркин, Ярослав Узенюк, Владимир Бадов, Анна Литкенс, Евгений Богородский, Владимир Шибанков, Антон Смекалкин, Эллина Качанова, Дмитрий Бакунин, Наталья Лукаш, Владимир Крупин
О фильме:
Киевская Русь, начало второго тысячелетия. Ростовские земли полыхают от межплеменных войн. В лесах, по дорогам и рекам хозяйничают разбойничьи ватаги. Разбойники продают людей Хазарам, которые сплавляют рабов в низовья Волги для перепродажи. Чтобы остановить работорговлю молодому Князю Ярославу предстоит объединить земли и народы Ростова. Победить врага можно только преодолев предубеждения и остановив религиозные и этнические конфликты внутри княжества. На месте уничтоженного разбойничьего логова Ярослав основывает город, который позже люди назовут его именем.



Страна: Россия
Продолжительность: 01:43:27
Язык: Русский
Дата релиза: 12.10.2013

Файл
Кодек: H.264
Качество: BDRip (AVC) (Blu-Ray Remux (1080p))
Видео: MPEG-4 AVC, 2400 Кбит/с, 1024x436
Звук: AC3, 6 ch, 448 Кбит/с

Общее
Уникальный идентификатор : 177332545773785572535273143580128587428 (0x85690189591BC4D799B7A5814ABA2EA4)
Полное имя : E:Yaroslav.Tisachy.Let.Nazad.2010.x264.BDRip.(AVC).ExKinoRay.mkv
Формат : Matroska
Размер файла : 2,06 Гбайт
Продолжительность : 1 ч. 43 м.
Общий поток : 2846 Кбит/сек
Название фильма : Yaroslav.Tisachy.Let.Nazad.2010.x264.BDRip.(AVC).ExKinoRay
Дата кодирования : UTC 2013-10-13 07:44:22
Программа кодирования : mkvmerge v4.0.0 ('The Stars were mine') сборка от Jun 6 2010 16:18:42
Библиотека кодирования : libebml v1.0.0 + libmatroska v1.0.0

Видео
Идентификатор : 1
Формат : AVC
Формат/Информация : Advanced Video Codec
Профиль формата : High@L4.1
Параметр CABAC формата : Да
Параметр ReFrames формата : 8 кадров
Идентификатор кодека : V_MPEG4/ISO/AVC
Продолжительность : 1 ч. 43 м.
Битрейт : 2400 Кбит/сек
Ширина : 1024 пикс.
Высота : 436 пикс.
Соотношение сторон : 2,35:1
Частота кадров : 23,976 кадр/сек
Цветовое пространство : YUV
Подвыборка цветности : 4:2:0
Битовая глубина : 8 бит
Тип развёртки : Прогрессивная
Бит/(Пиксели*Кадры) : 0.224
Размер потока : 1,69 Гбайт (82%)
Заголовок : Rip by Enigma-Vladislav71
Библиотека кодирования : x264 core 129 r2245 bc13772
Настройки программы : cabac=1 / ref=8 / deblock=1:-2:-2 / analyse=0x3:0x133 / me=umh / subme=11 / psy=1 / psy_rd=1.00:0.00 / mixed_ref=1 / me_range=48 / chroma_me=1 / trellis=2 / 8x8dct=1 / cqm=0 / deadzone=21,11 / fast_pskip=0 / chroma_qp_offset=-2 / threads=3 / lookahead_threads=1 / sliced_threads=0 / nr=0 / decimate=0 / interlaced=0 / bluray_compat=0 / constrained_intra=0 / bframes=8 / b_pyramid=2 / b_adapt=2 / b_bias=0 / direct=3 / weightb=1 / open_gop=0 / weightp=2 / keyint=240 / keyint_min=23 / scenecut=40 / intra_refresh=0 / rc=2pass / mbtree=0 / bitrate=2400 / ratetol=1.0 / qcomp=0.60 / qpmin=10 / qpmax=51 / qpstep=4 / cplxblur=20.0 / qblur=0.5 / ip_ratio=1.40 / pb_ratio=1.30 / aq=2:1.00
Язык : English

Аудио
Идентификатор : 2
Формат : AC-3
Формат/Информация : Audio Coding 3
Расширение режима : CM (complete main)
Идентификатор кодека : A_AC3
Продолжительность : 1 ч. 43 м.
Вид битрейта : Постоянный
Битрейт : 448 Кбит/сек
Каналы : 6 каналов
Расположение каналов : Front: L C R, Side: L R, LFE
Частота : 48,0 КГц
Битовая глубина : 16 бит
Метод сжатия : С потерями
Размер потока : 331 Мбайт (16%)
Язык : Russian



Релиз от:

Авторы релиза:



   Похожие торренты   Торрент   Размер 
В этой теме нет новых непрочитанных сообщений. Ярослав. Тысячу лет назад (2010) BDRip-AVC

11 | 4

2.18 ГБ

В этой теме нет новых непрочитанных сообщений. Ярослав. Тысячу лет назад (2010) BDRip

11 | 3

1.37 ГБ

В этой теме нет новых непрочитанных сообщений. Ярослав. Тысячу лет назад (2010) BDRip 1080p

27 | 5

4.36 ГБ

В этой теме нет новых непрочитанных сообщений. Ярослав. Тысячу лет назад (2010) BDRip 1080p

2 | 2

7.93 ГБ

В этой теме нет новых непрочитанных сообщений. Ярослав. Тысячу лет назад (2010) BDRip 720p

16 | 2

3.99 ГБ

В этой теме нет новых непрочитанных сообщений. Ярослав. Тысячу лет назад (2010) BDRip от HQCLUB

55 | 13

1.95 ГБ

В этой теме нет новых непрочитанных сообщений. Ярослав. Тысячу лет назад (2010) BDRip (720p) от NOLIMITS-TEAM

17 | 21

2.18 ГБ




Вы не можете начинать темы
Вы не можете отвечать на сообщения
Вы не можете редактировать свои сообщения
Вы не можете удалять свои сообщения
Вы не можете добавлять вложения

Перейти:  
Для Мосгорсуда, Роскомнадзора и рекламодателей: mosgorsud-torrent[собачка]yandex.ru
 Вход
ppkBB3cker v.2 © 2008-2014 @ PPK
[ Time : 0.030s | 14 Queries | GZIP : Off ]

Торрент трекер RUTOR.IN, Не можете зайти на rutor.org? Какой новый адрес рутор? Какое зеркало рутор? Не работает rutor.org и зеркала? Тогда наш торрент специально для вас. Rutor.in неофициальное зеркало rutor. В случае если у Вас заблокирован rutor или вдруг Вы не можете на него зайти, то Вы без труда сможете скачать бесплатно и без рекламы последние новинки кино, игр, сериалов и прочего у нас, на Rutor.in. Не нужно использовать прокси, чтобы зайти на рутор, достаточно воспользоваться нашим ресурсом. Все новые фильмы, игры, сериалы, книги и музыка за 2013 и 2014 годы через торрент бесплатно. Скачивайте фильмы в хорошем качестве, игры для пк, xbox, playstation без регистрации. У нас вы найдете новые Зарубежные сериалы и Русские сериалы 2013, 2014, 2015 годов. Оставайтесь с нами, качайте любимые фильмы, игры, сериалы, книги и музыку.