img image001 image001 image001 image001 image001 image001 image001 image001 image001 image001 image001 image001 image001 image001 image001

Planets Sun Sun Sun
Статистика раздачи
Автор: PriZraK | Размер: 744.62 МБ | Добавлен: 15 фев 2014
Раздают: 112    Качают: 17
Скачать торрент
Скачать торрент
Описание торрента

СообщениеДобавлено: 15 фев 2014 


#77
Страна: СССР
Производство: Мосфильм
Жанр: драма, комедия
Год выпуска: 1979
Продолжительность: 01:35:35

Перевод: не требуется
Оригинальная аудиодорожка: русский
Cубтитры: нет

Режиссер: Эльдар Рязанов

В ролях:
Лия Ахеджакова, Ия Саввина, Светлана Немоляева, Валентин Гафт, Андрей Мягков, Георгий Бурков, Леонид Марков, Вячеслав Невинный, Анастасия Вознесенская, Семен Фарада, Игорь Костолевский, Ольга Остроумова, Глеб Стриженов, Борислав Брондуков, Наталья Гурзо, Алла Будницкая, Вадим Захарченко, Михаил Кокшенов, Эдьдар Рязанов...

Описание:
Действие происходит в СССР в конце 1970-х годов в вымышленном НИИ «Охраны животных от окружающей среды». Сотрудники института организовали гаражный кооператив «Фауна», и сюжет фильма посвящён заседанию членов кооператива. По территории, где идёт строительство, должно пройти скоростное шоссе, в связи с чем необходимо сократить количество гаражей. На заседании пайщиков предстоит выбрать четырёх «крайних». Но выбора, в общем-то, и нет — руководство кооператива (Аникеева и Сидорин) уже составило список сокращаемых, который собранию надо лишь утвердить.
Голосование «списком» прошло бы гладко и больной вопрос удалось бы решить, если бы не активное сопротивление ущемленных (Хвостов, Фетисов, Якубов) и вмешательство одной из пайщиц кооператива — младшего научного сотрудника института Елены Павловны Малаевой (Лия Ахеджакова). Она решила, что правление поступило несправедливо и за каждого исключаемого из кооператива нужно голосовать отдельно. Ко всему прочему оказывается, что кто-то из участников собрания похитил ключ, запер дверь и никто не может покинуть помещение. Раздражённым участникам затянувшегося собрания поневоле приходится выслушать предложение Малаевой и продолжить заседание. Разбирательство с деятельностью правления приводит к тому, что на свет выходят неприглядные факты. В состав кооператива были приняты «блатные» — люди, ставшие пайщиками кооператива за взятку или по протекции (директор рынка Кушакова и сын Милосердова). Обстановка накаляется, так как часть «блатных» и четверка «обделенных» отнюдь не собираются сдавать свои позиции, требуя свои гаражи. Когда же ключ наконец находят, появляется плохая новость - у Аникеевой угнали машину. Так-как согласно уставу гаражного кооператива, человек не имеющий машины не может быть членом кооператива, Аникеева выбывает из игры и покидает помещение. Остальные тянут жребий (бумажки из шапки), так как один человек всё-таки лишний…





Исходник: DVD5 R5
Тип релиза: DVDRip
Контейнер: AVI

Видео: 592x432 (1,370:1), 25 fps, XviD ~ 951 kbps avg, 0.149 bit/pixel
Аудио: 48 kHz, MP3 2.0, 128 kbps
Общее
Полное имя : Garazh.1979.DVDRip-745_[Youtracker]_by_AVP Studio.avi
Формат : AVI
Формат/Информация : Audio Video Interleave
Размер файла : 745 Мбайт
Продолжительность : 1 ч. 35 м.
Общий поток : 1089 Кбит/сек
Программа кодирования : VirtualDubModRus 1.5.10.2 (build 2542/release)
Библиотека кодирования : VirtualDubMod build 2542/release

Видео
Идентификатор : 0
Формат : MPEG-4 Visual
Профиль формата : Advanced Simple@L5
Параметр BVOP формата : 1
Параметр QPel формата : Нет
Параметр GMC формата : Без точки перехода
Параметр матрицы формата : Выборочная
Идентификатор кодека : XVID
Идентификатор кодека/Подсказка : XviD
Продолжительность : 1 ч. 35 м.
Битрейт : 951 Кбит/сек
Ширина : 592 пикселя
Высота : 432 пикселя
Соотношение сторон : 1,370
Частота кадров : 25,000 кадров/сек
Цветовое пространство : YUV
Субдискретизация насыщенности : 4:2:0
Битовая глубина : 8 бит
Тип развёртки : Прогрессивная
Метод сжатия : С потерями
Бит/(Пиксели*Кадры) : 0.149
Размер потока : 650 Мбайт (87%)
Библиотека кодирования : XviD 73

Аудио
Идентификатор : 1
Формат : MPEG Audio
Версия формата : Version 1
Профиль формата : Layer 3
Идентификатор кодека : 55
Идентификатор кодека/Подсказка : MP3
Продолжительность : 1 ч. 35 м.
Вид битрейта : Постоянный
Битрейт : 128 Кбит/сек
Каналы : 2 канала
Частота : 48,0 КГц
Метод сжатия : С потерями
Размер потока : 87,5 Мбайт (12%)
Выравнивание : Соединение по промежуткам
Продолжительность промежутка : 40 мс. (1,00 видеокадр)
Время предзагрузки промежутка : 504 мс.
Библиотека кодирования : LAME3.99r
Настройки программы : -m s -V 4 -q 2 -lowpass 17 -b 128



В основу сюжета фильма легла реальная история — собрание гаражно-строительного кооператива Мосфильма, участником которого был Э. Рязанов. И так же, как в фильме, на собрании гаражно-строительного кооператива в связи со строительством трассы, которая должна была пройти по территории, выделенной ранее под строительство гаражей, решался вопрос об исключении нескольких «лишних» пайщиков. Неожиданное и парадоксальное поведение коллег глубоко поразило Рязанова и навело на мысль о написании сценария на основе произошедших событий. Строительство трассы, исключение части пайщиков, нелицеприятное поведение людей в сложившейся ситуации — реальные события.
Роль Сидорина режиссёр предлагал Анатолию Кузнецову, но за день до этого актёр дал согласие на участие в съемках чехословацкого фильма «Гордубал» и отказался. На эту роль претендовал Александр Ширвиндт, но он опаздывал на репетицию. Поэтому Рязанов пригласил Валентина Гафта.



   Похожие торренты   Торрент   Размер 
В этой теме нет новых непрочитанных сообщений. Гараж (1979) DVDRip-AVC от New-Team

248 | 21

1.46 ГБ

В этой теме нет новых непрочитанных сообщений. Гараж (1979) DVDRip от New-Team

100 | 12

1.46 ГБ

В этой теме нет новых непрочитанных сообщений. Гараж (1979) DVDRip

63 | 9

1.45 ГБ

В этой теме нет новых непрочитанных сообщений. Гараж (1979) DVDRip

60 | 7

1.46 ГБ

В этой теме нет новых непрочитанных сообщений. Гараж (1979) DVDRip-AVC от ExKinoRay

531 | 18

2.17 ГБ

В этой теме нет новых непрочитанных сообщений. Гараж (1979) DVDRip-AVC от Torrent-Xzona

35 | 5

1.47 ГБ

В этой теме нет новых непрочитанных сообщений. Гараж (1979) DVDRemux | Реставрация

85 | 12

3.64 ГБ




Вы не можете начинать темы
Вы не можете отвечать на сообщения
Вы не можете редактировать свои сообщения
Вы не можете удалять свои сообщения
Вы не можете добавлять вложения

Перейти:  
Для Мосгорсуда, Роскомнадзора и рекламодателей: mosgorsud-torrent[собачка]yandex.ru
 Вход
ppkBB3cker v.2 © 2008-2014 @ PPK
[ Time : 0.019s | 14 Queries | GZIP : On ]

Торрент трекер RUTOR.IN, Не можете зайти на rutor.org? Какой новый адрес рутор? Какое зеркало рутор? Не работает rutor.org и зеркала? Тогда наш торрент специально для вас. Rutor.in неофициальное зеркало rutor. В случае если у Вас заблокирован rutor или вдруг Вы не можете на него зайти, то Вы без труда сможете скачать бесплатно и без рекламы последние новинки кино, игр, сериалов и прочего у нас, на Rutor.in. Не нужно использовать прокси, чтобы зайти на рутор, достаточно воспользоваться нашим ресурсом. Все новые фильмы, игры, сериалы, книги и музыка за 2013 и 2014 годы через торрент бесплатно. Скачивайте фильмы в хорошем качестве, игры для пк, xbox, playstation без регистрации. У нас вы найдете новые Зарубежные сериалы и Русские сериалы 2013, 2014, 2015 годов. Оставайтесь с нами, качайте любимые фильмы, игры, сериалы, книги и музыку.