img image001 image001 image001 image001 image001 image001 image001 image001 image001 image001 image001 image001 image001 image001 image001

Planets Sun Sun Sun
Статистика раздачи
Автор: PriZraK | Размер: 743.18 МБ | Добавлен: 15 фев 2014
Раздают: 0    Качают: 4
Скачать торрент
Скачать торрент
Описание торрента

СообщениеДобавлено: 15 фев 2014 


#77
Страна: СССР
Производство: Мосфильм
Жанр: мюзикл, мелодрама, комедия
Год выпуска: 1979
Продолжительность: 01:07:10

Перевод: не требуется
Оригинальная аудиодорожка: русский
Cубтитры: нет

Режиссер: Светлана Дружинина

В ролях:
Михаил Боярский, Елена Коренева, Андрей Попов, Баадур Цуладзе, Сергей Иванов, Александр Баринов, Андрей Юшин, Анатолий Мукасей...

Описание:
Пламенно влюбившись в дочку ростовщика, лихой гусар не мог и вообразить, до какой степени жаден будущий тесть. Но гусар оказался не лыком шит и обвел-таки старого сластолюбца и скрягу вокруг пальца, добыв деньги… у него самого.





Исходник: DVD5 R5
Тип релиза: DVDRip
Контейнер: AVI

Видео: 672x512 (4:3), 25 fps, XviD ~ 1409 kbps avg, 0.164 bit/pixel
Аудио: 48 kHz, MP3 2.0, 128 kbps
Общее
Полное имя : Svatovstvo.gusara.1979.DVDRip_[Youtracker]_by_AVP Studio.avi
Формат : AVI
Формат/Информация : Audio Video Interleave
Размер файла : 743 Мбайт
Продолжительность : 1 ч. 7 м.
Общий поток : 1547 Кбит/сек
Программа кодирования : VirtualDubModRus 1.5.10.2 (build 2542/release)
Библиотека кодирования : VirtualDubMod build 2542/release

Видео
Идентификатор : 0
Формат : MPEG-4 Visual
Профиль формата : Advanced Simple@L5
Параметр BVOP формата : 1
Параметр QPel формата : Нет
Параметр GMC формата : Без точки перехода
Параметр матрицы формата : Выборочная
Идентификатор кодека : XVID
Идентификатор кодека/Подсказка : XviD
Продолжительность : 1 ч. 7 м.
Битрейт : 1409 Кбит/сек
Ширина : 672 пикселя
Высота : 512 пикселей
Соотношение сторон : 4:3
Частота кадров : 25,000 кадров/сек
Цветовое пространство : YUV
Субдискретизация насыщенности : 4:2:0
Битовая глубина : 8 бит
Тип развёртки : Прогрессивная
Метод сжатия : С потерями
Бит/(Пиксели*Кадры) : 0.164
Размер потока : 677 Мбайт (91%)
Библиотека кодирования : XviD 73

Аудио
Идентификатор : 1
Формат : MPEG Audio
Версия формата : Version 1
Профиль формата : Layer 3
Идентификатор кодека : 55
Идентификатор кодека/Подсказка : MP3
Продолжительность : 1 ч. 7 м.
Вид битрейта : Постоянный
Битрейт : 128 Кбит/сек
Каналы : 2 канала
Частота : 48,0 КГц
Метод сжатия : С потерями
Размер потока : 61,5 Мбайт (8%)
Выравнивание : Соединение по промежуткам
Продолжительность промежутка : 40 мс. (1,00 видеокадр)
Время предзагрузки промежутка : 504 мс.
Библиотека кодирования : LAME3.99r
Настройки программы : -m s -V 4 -q 2 -lowpass 17 -b 128





   Похожие торренты   Торрент   Размер 
В этой теме нет новых непрочитанных сообщений. Сватовство гусара (1979) DVDRip-AVC от New-Team

11 | 13

744.61 МБ

В этой теме нет новых непрочитанных сообщений. Сватовство гусара (1979) DVDRip

2 | 5

1.08 ГБ

В этой теме нет новых непрочитанных сообщений. Сватовство гусара (1979) DVD5

8 | 2

4.26 ГБ

В этой теме нет новых непрочитанных сообщений. Два гусара (1984) DVDRip от Киномагия

1 | 5

2.35 ГБ

В этой теме нет новых непрочитанных сообщений. Бургер Хазард 3. Сватовство / BurgerHazard 3 / Resident Evil 3: Extinction (2007) DVDRip

1 | 18

1.49 ГБ

В этой теме нет новых непрочитанных сообщений. Гараж (1979) DVDRip от New-Team

112 | 17

744.62 МБ

В этой теме нет новых непрочитанных сообщений. Гараж (1979) DVDRip-AVC от New-Team

248 | 21

1.46 ГБ




Вы не можете начинать темы
Вы не можете отвечать на сообщения
Вы не можете редактировать свои сообщения
Вы не можете удалять свои сообщения
Вы не можете добавлять вложения

Перейти:  
Для Мосгорсуда, Роскомнадзора и рекламодателей: mosgorsud-torrent[собачка]yandex.ru
 Вход
ppkBB3cker v.2 © 2008-2014 @ PPK
[ Time : 0.046s | 16 Queries | GZIP : Off ]
CGP output time : 0.043s | 5 Queries | GZIP : Off

Торрент трекер RUTOR.IN, Не можете зайти на rutor.org? Какой новый адрес рутор? Какое зеркало рутор? Не работает rutor.org и зеркала? Тогда наш торрент специально для вас. Rutor.in неофициальное зеркало rutor. В случае если у Вас заблокирован rutor или вдруг Вы не можете на него зайти, то Вы без труда сможете скачать бесплатно и без рекламы последние новинки кино, игр, сериалов и прочего у нас, на Rutor.in. Не нужно использовать прокси, чтобы зайти на рутор, достаточно воспользоваться нашим ресурсом. Все новые фильмы, игры, сериалы, книги и музыка за 2013 и 2014 годы через торрент бесплатно. Скачивайте фильмы в хорошем качестве, игры для пк, xbox, playstation без регистрации. У нас вы найдете новые Зарубежные сериалы и Русские сериалы 2013, 2014, 2015 годов. Оставайтесь с нами, качайте любимые фильмы, игры, сериалы, книги и музыку.