img image001 image001 image001 image001 image001 image001 image001 image001 image001 image001 image001 image001 image001 image001 image001

Planets Sun Sun Sun
Статистика раздачи
Автор: PriZraK | Размер: 1.09 ГБ | Добавлен: 15 фев 2014
Раздают: 17    Качают: 6
Скачать торрент
Скачать торрент
Описание торрента

СообщениеДобавлено: 15 фев 2014 


#77
Страна: СССР
Производство: Гостелерадио, Мосфильм
Жанр: мюзикл, комедия
Год выпуска: 1979
Продолжительность: 01:04:28

Перевод: не требуется
Оригинальная аудиодорожка: русский
Cубтитры: нет

Режиссер: Георгий Юнгвальд-Хилькевич

В ролях:
Галина Беляева, Михаил Пуговкин, Олег Табаков, Людмила Крылова, Эммануил Геллер, Борис Иванов, Александр Макаров, Н. Абрикосова, Ольга Лисичкина, Т. Спивакова, В. Паладьева, С. Мальцева, Татьяна Халемская, Т. Трофимова, Татьяна Розова, Лина Арифулина...

Описание:
Актёру Михайлу Лисичкину в театре дают отставку, чем наносят глубокое оскорбление. Он решает во что бы то ни стало отвадить дочь Верочку от театра и выдать удачно замуж за дважды вдовца и отставного прапорщика Акакия Ушицу. В планы Верочки не входит перспектива стать отставной прапорщицей, она мечтает о карьере театральной актрисы и продолжении творческой династии Лисичкиных. Верочка подговаривает служанку Катю, как одурачить отставного военного. Верочка переодевается цыганкой, мальчишкой и, переменив облик, убеждает прапорщика отказаться от планов по женитьбе на себе. И вот теперь Катя прапорщику теперь нравится гораздо больше.
Проходит много лет. Бывшая знаменитая актриса Вера Лисичкина убеждает свою дочь в том, что театральная карьера — не лучшее будущее для девушки… Круг замкнулся.





Исходник: DVD5 R5
Тип релиза: DVDRip-AVC
Контейнер: MKV

Видео: 720->768x574 (4:3), 25 fps, H264 ~ 1977 kbps avg, 0.191 bit/pixel
Аудио: 48 kHz, Dolby AC3 5.1, 448 kbps
Общее
Полное имя : Ah,vodevil,vodevil...1979.DVDRip-AVC_[Youtracker]_by_AVP Studio.mkv
Формат : Matroska
Версия формата : Version 2
Размер файла : 1,09 Гбайт
Продолжительность : 1 ч. 4 м.
Общий поток : 2427 Кбит/сек
Дата кодирования : UTC 2013-10-15 04:38:42
Программа кодирования : mkvmerge v6.1.0 ('Old Devil') built on Mar 4 2013 09:10:42
Библиотека кодирования : libebml v1.3.0 + libmatroska v1.4.0

Видео
Идентификатор : 1
Формат : AVC
Формат/Информация : Advanced Video Codec
Профиль формата : High@L4.1
Параметр CABAC формата : Да
Параметр ReFrames формата : 6 кадров
Идентификатор кодека : V_MPEG4/ISO/AVC
Продолжительность : 1 ч. 4 м.
Битрейт : 1977 Кбит/сек
Ширина : 720 пикселей
Высота : 574 пикселя
Соотношение сторон : 4:3
Частота кадров : 25,000 кадров/сек
Цветовое пространство : YUV
Субдискретизация насыщенности : 4:2:0
Битовая глубина : 8 бит
Тип развёртки : Прогрессивная
Бит/(Пиксели*Кадры) : 0.191
Размер потока : 890 Мбайт (80%)
Библиотека кодирования : x264 core 138 r2356 a1d3d17
Настройки программы : cabac=1 / ref=6 / deblock=1:-2:-1 / analyse=0x3:0x113 / me=umh / subme=10 / psy=1 / psy_rd=1.00:0.05 / mixed_ref=1 / me_range=32 / chroma_me=1 / trellis=2 / 8x8dct=1 / cqm=0 / deadzone=21,11 / fast_pskip=0 / chroma_qp_offset=-3 / threads=3 / lookahead_threads=1 / sliced_threads=0 / nr=0 / decimate=0 / interlaced=0 / bluray_compat=0 / constrained_intra=0 / bframes=8 / b_pyramid=2 / b_adapt=2 / b_bias=0 / direct=3 / weightb=1 / open_gop=0 / weightp=2 / keyint=250 / keyint_min=25 / scenecut=40 / intra_refresh=0 / rc=2pass / mbtree=0 / bitrate=1977 / ratetol=1.0 / qcomp=0.60 / qpmin=0 / qpmax=69 / qpstep=4 / cplxblur=20.0 / qblur=0.5 / ip_ratio=1.40 / pb_ratio=1.30 / aq=1:1.00
Default : Да
Forced : Нет

Аудио
Идентификатор : 2
Формат : AC-3
Формат/Информация : Audio Coding 3
Расширение режима : CM (complete main)
Идентификатор кодека : A_AC3
Продолжительность : 1 ч. 4 м.
Вид битрейта : Постоянный
Битрейт : 448 Кбит/сек
Каналы : 6 каналов
Расположение каналов : Front: L C R, Side: L R, LFE
Частота : 48,0 КГц
Битовая глубина : 16 бит
Метод сжатия : С потерями
Задержка видео : 187 мс.
Размер потока : 207 Мбайт (18%)
Default : Да
Forced : Нет



В эпизоде, когда Михаил Пуговкин рассматривает афиши, камера останавливается на плакате с изображениями Аллы Пугачёвой, Михаила Боярского
В сцене, где Верочка (переодетая цыганкой) гадает Акакию на картах, использована колода карт стиля «черный Палех», разработанная художником П.Баженовым лишь в 1937 году (и массово изданная Ленинградским комбинатом цветной печати ещё позже — в 1967 году).



   Похожие торренты   Торрент   Размер 
В этой теме нет новых непрочитанных сообщений. Ах, водевиль, водевиль... (1979) DVDRip от New-Team

17 | 10

1.1 ГБ

В этой теме нет новых непрочитанных сообщений. Ах, водевиль, водевиль... (1979) DVDRip от New-Team

114 | 14

742.62 МБ

В этой теме нет новых непрочитанных сообщений. Ах, водевиль, водевиль... (1979) DVDRip

158 | 15

1.19 ГБ

В этой теме нет новых непрочитанных сообщений. Ах, водевиль, водевиль... (1979) DVD5

32 | 6

4.28 ГБ

В этой теме нет новых непрочитанных сообщений. Старинный водевиль (1946) DVDRip-AVC от New-Team

27 | 4

744.47 МБ

В этой теме нет новых непрочитанных сообщений. Старинный водевиль (1946) DVDRip от New-Team

21 | 4

745.24 МБ

В этой теме нет новых непрочитанных сообщений. Старинный водевиль (1946) DVDRip от New-Team

55 | 19

1.09 ГБ




Вы не можете начинать темы
Вы не можете отвечать на сообщения
Вы не можете редактировать свои сообщения
Вы не можете удалять свои сообщения
Вы не можете добавлять вложения

Перейти:  
Для Мосгорсуда, Роскомнадзора и рекламодателей: mosgorsud-torrent[собачка]yandex.ru
 Вход
ppkBB3cker v.2 © 2008-2014 @ PPK
[ Time : 0.039s | 15 Queries | GZIP : Off ]

Торрент трекер RUTOR.IN, Не можете зайти на rutor.org? Какой новый адрес рутор? Какое зеркало рутор? Не работает rutor.org и зеркала? Тогда наш торрент специально для вас. Rutor.in неофициальное зеркало rutor. В случае если у Вас заблокирован rutor или вдруг Вы не можете на него зайти, то Вы без труда сможете скачать бесплатно и без рекламы последние новинки кино, игр, сериалов и прочего у нас, на Rutor.in. Не нужно использовать прокси, чтобы зайти на рутор, достаточно воспользоваться нашим ресурсом. Все новые фильмы, игры, сериалы, книги и музыка за 2013 и 2014 годы через торрент бесплатно. Скачивайте фильмы в хорошем качестве, игры для пк, xbox, playstation без регистрации. У нас вы найдете новые Зарубежные сериалы и Русские сериалы 2013, 2014, 2015 годов. Оставайтесь с нами, качайте любимые фильмы, игры, сериалы, книги и музыку.