img image001 image001 image001 image001 image001 image001 image001 image001 image001 image001 image001 image001 image001 image001 image001

Planets Sun Sun Sun
Статистика раздачи
Автор: PriZraK | Размер: 742.62 МБ | Добавлен: 15 фев 2014
Раздают: 114    Качают: 14
Скачать торрент
Скачать торрент
Описание торрента

СообщениеДобавлено: 15 фев 2014 


#77
Страна: СССР
Производство: Гостелерадио, Мосфильм
Жанр: мюзикл, комедия
Год выпуска: 1979
Продолжительность: 01:04:28

Перевод: не требуется
Оригинальная аудиодорожка: русский
Cубтитры: нет

Режиссер: Георгий Юнгвальд-Хилькевич

В ролях:
Галина Беляева, Михаил Пуговкин, Олег Табаков, Людмила Крылова, Эммануил Геллер, Борис Иванов, Александр Макаров, Н. Абрикосова, Ольга Лисичкина, Т. Спивакова, В. Паладьева, С. Мальцева, Татьяна Халемская, Т. Трофимова, Татьяна Розова, Лина Арифулина...

Описание:
Актёру Михайлу Лисичкину в театре дают отставку, чем наносят глубокое оскорбление. Он решает во что бы то ни стало отвадить дочь Верочку от театра и выдать удачно замуж за дважды вдовца и отставного прапорщика Акакия Ушицу. В планы Верочки не входит перспектива стать отставной прапорщицей, она мечтает о карьере театральной актрисы и продолжении творческой династии Лисичкиных. Верочка подговаривает служанку Катю, как одурачить отставного военного. Верочка переодевается цыганкой, мальчишкой и, переменив облик, убеждает прапорщика отказаться от планов по женитьбе на себе. И вот теперь Катя прапорщику теперь нравится гораздо больше.
Проходит много лет. Бывшая знаменитая актриса Вера Лисичкина убеждает свою дочь в том, что театральная карьера — не лучшее будущее для девушки… Круг замкнулся.





Исходник: DVD5 R5
Тип релиза: DVDRip
Контейнер: AVI

Видео: 720x544 (4:3), 25 fps, XviD ~ 1473 kbps avg, 0.150 bit/pixel
Аудио: 48 kHz, MP3 2.0, 128 kbps
Общее
Полное имя : Ah,vodevil,vodevil...1979.DVDRip-745_[Youtracker]_by_AVP Studio.avi
Формат : AVI
Формат/Информация : Audio Video Interleave
Размер файла : 743 Мбайт
Продолжительность : 1 ч. 4 м.
Общий поток : 1610 Кбит/сек
Программа кодирования : VirtualDubModRus 1.5.10.2 (build 2542/release)
Библиотека кодирования : VirtualDubMod build 2542/release

Видео
Идентификатор : 0
Формат : MPEG-4 Visual
Профиль формата : Advanced Simple@L5
Параметр BVOP формата : 1
Параметр QPel формата : Нет
Параметр GMC формата : Без точки перехода
Параметр матрицы формата : Выборочная
Идентификатор кодека : XVID
Идентификатор кодека/Подсказка : XviD
Продолжительность : 1 ч. 4 м.
Битрейт : 1473 Кбит/сек
Ширина : 720 пикселей
Высота : 544 пикселя
Соотношение сторон : 4:3
Частота кадров : 25,000 кадров/сек
Цветовое пространство : YUV
Субдискретизация насыщенности : 4:2:0
Битовая глубина : 8 бит
Тип развёртки : Прогрессивная
Метод сжатия : С потерями
Бит/(Пиксели*Кадры) : 0.150
Размер потока : 679 Мбайт (91%)
Библиотека кодирования : XviD 73

Аудио
Идентификатор : 1
Формат : MPEG Audio
Версия формата : Version 1
Профиль формата : Layer 3
Идентификатор кодека : 55
Идентификатор кодека/Подсказка : MP3
Продолжительность : 1 ч. 4 м.
Вид битрейта : Постоянный
Битрейт : 128 Кбит/сек
Каналы : 2 канала
Частота : 48,0 КГц
Метод сжатия : С потерями
Размер потока : 59,0 Мбайт (8%)
Выравнивание : Соединение по промежуткам
Продолжительность промежутка : 40 мс. (1,00 видеокадр)
Время предзагрузки промежутка : 504 мс.
Библиотека кодирования : LAME3.99r
Настройки программы : -m s -V 4 -q 2 -lowpass 17 -b 128



В эпизоде, когда Михаил Пуговкин рассматривает афиши, камера останавливается на плакате с изображениями Аллы Пугачёвой, Михаила Боярского
В сцене, где Верочка (переодетая цыганкой) гадает Акакию на картах, использована колода карт стиля «черный Палех», разработанная художником П.Баженовым лишь в 1937 году (и массово изданная Ленинградским комбинатом цветной печати ещё позже — в 1967 году).



   Похожие торренты   Торрент   Размер 
В этой теме нет новых непрочитанных сообщений. Ах, водевиль, водевиль... (1979) DVDRip-AVC от New-Team

17 | 6

1.09 ГБ

В этой теме нет новых непрочитанных сообщений. Ах, водевиль, водевиль... (1979) DVDRip от New-Team

17 | 10

1.1 ГБ

В этой теме нет новых непрочитанных сообщений. Ах, водевиль, водевиль... (1979) DVDRip

158 | 15

1.19 ГБ

В этой теме нет новых непрочитанных сообщений. Ах, водевиль, водевиль... (1979) DVD5

32 | 6

4.28 ГБ

В этой теме нет новых непрочитанных сообщений. Старинный водевиль (1946) DVDRip-AVC от New-Team

27 | 4

744.47 МБ

В этой теме нет новых непрочитанных сообщений. Старинный водевиль (1946) DVDRip от New-Team

21 | 4

745.24 МБ

В этой теме нет новых непрочитанных сообщений. Старинный водевиль (1946) DVDRip от New-Team

55 | 19

1.09 ГБ




Вы не можете начинать темы
Вы не можете отвечать на сообщения
Вы не можете редактировать свои сообщения
Вы не можете удалять свои сообщения
Вы не можете добавлять вложения

Перейти:  
Для Мосгорсуда, Роскомнадзора и рекламодателей: mosgorsud-torrent[собачка]yandex.ru
 Вход
ppkBB3cker v.2 © 2008-2014 @ PPK
[ Time : 0.020s | 14 Queries | GZIP : Off ]

Торрент трекер RUTOR.IN, Не можете зайти на rutor.org? Какой новый адрес рутор? Какое зеркало рутор? Не работает rutor.org и зеркала? Тогда наш торрент специально для вас. Rutor.in неофициальное зеркало rutor. В случае если у Вас заблокирован rutor или вдруг Вы не можете на него зайти, то Вы без труда сможете скачать бесплатно и без рекламы последние новинки кино, игр, сериалов и прочего у нас, на Rutor.in. Не нужно использовать прокси, чтобы зайти на рутор, достаточно воспользоваться нашим ресурсом. Все новые фильмы, игры, сериалы, книги и музыка за 2013 и 2014 годы через торрент бесплатно. Скачивайте фильмы в хорошем качестве, игры для пк, xbox, playstation без регистрации. У нас вы найдете новые Зарубежные сериалы и Русские сериалы 2013, 2014, 2015 годов. Оставайтесь с нами, качайте любимые фильмы, игры, сериалы, книги и музыку.