img image001 image001 image001 image001 image001 image001 image001 image001 image001 image001 image001 image001 image001 image001 image001

Planets Sun Sun Sun
Статистика раздачи
Автор: PriZraK | Размер: 1.09 ГБ | Добавлен: 15 фев 2014
Раздают: 23    Качают: 3
Скачать торрент
Скачать торрент
Описание торрента

СообщениеДобавлено: 15 фев 2014 




Информация о фильме
Название: Девять дней одного года
Год выхода: 1961
Страна: Россия
Жанр: драма, про ученых
Режиссер: Михаил Ромм
В ролях: Алексей Баталов, Иннокентий Смоктуновский, Татьяна Лаврова, Николай Плотников, Сергей Блинников, Евгений Eвстигнеев, Михаил Козаков, Валентин Никулин, Павел Шпрингфельд, Александр Пелевин

О фильме:
Действие этой интеллектуальной драмы происходит в 60-е годы ХХ столетия. Молодые ученые — ядерщики, одержимый экспериментатор Гусев и скептичный физик-теоретик Куликов, — давние друзья, влюбленные в одну девушку по имени Леля. В результате научных экспериментов Гусев получает опасную для жизни дозу радиации. Предупреждения врачей об опасности, грозящей его жизни, не останавливают ученого в поисках научной истины, возможно, последних для него…

Продолжительность: 01:44:18

Файл
Кодек: x264
Качество: DVDRip-AVC
Видео: x264, 716x576 @ 716x526 (4:3), 25.000 fps, 1275kbps
Звук: AC3, 1ch, 48KHz, 224kbps

Семпл





General
Unique ID : 190333938433546562328803596721859986773 (0x8F30FBAF78B34D5B949DB58D7A820555)
Complete name : /mnt/mus/4new/91/Девять дней одного года (1961).mkv
Format : Matroska
Format version : Version 2
File size : 1.09 GiB
Duration : 1h 44mn
Overall bit rate : 1 501 Kbps
Encoded by : seeker05
Encoded date : UTC 2013-09-16 11:24:55
Writing application : mkvmerge v6.2.0 ('Promised Land') built on Apr 28 2013 12:22:01
Writing library : libebml v1.3.0 + libmatroska v1.4.0

Video
ID : 2
Format : AVC
Format/Info : Advanced Video Codec
Format profile : High@L4.0
Format settings, CABAC : Yes
Format settings, ReFrames : 16 frames
Codec ID : V_MPEG4/ISO/AVC
Duration : 1h 44mn
Bit rate : 1 275 Kbps
Width : 716 pixels
Height : 576 pixels
Display aspect ratio : 4:3
Original display aspect ratio : 5:4
Frame rate mode : Constant
Frame rate : 25.000 fps
Color space : YUV
Chroma subsampling : 4:2:0
Bit depth : 8 bits
Scan type : Progressive
Bits/(Pixel*Frame) : 0.124
Stream size : 930 MiB (83%)
Title : x264, 716x576 @ 716x526 (4:3), 25.000 fps, 1275kbps
Writing library : x264 core 133 r2334 a3ac64b
Encoding settings : cabac=1 / ref=16 / deblock=1:-2:-1 / analyse=0x3:0x133 / me=umh / subme=10 / psy=1 / psy_rd=1.05:0.10 / mixed_ref=1 / me_range=32 / chroma_me=1 / trellis=2 / 8x8dct=1 / cqm=0 / deadzone=21,11 / fast_pskip=0 / chroma_qp_offset=-3 / threads=6 / lookahead_threads=1 / sliced_threads=0 / nr=0 / decimate=0 / interlaced=0 / bluray_compat=0 / constrained_intra=0 / bframes=10 / b_pyramid=2 / b_adapt=2 / b_bias=0 / direct=3 / weightb=1 / open_gop=0 / weightp=2 / keyint=250 / keyint_min=25 / scenecut=40 / intra_refresh=0 / rc_lookahead=160 / rc=2pass / mbtree=1 / bitrate=1275 / ratetol=1.0 / qcomp=0.60 / qpmin=0 / qpmax=69 / qpstep=4 / cplxblur=20.0 / qblur=0.5 / ip_ratio=1.40 / aq=1:1.00
Language : Russian
Default : Yes
Forced : No

Audio
ID : 1
Format : AC-3
Format/Info : Audio Coding 3
Mode extension : CM (complete main)
Format settings, Endianness : Big
Codec ID : A_AC3
Duration : 1h 44mn
Bit rate mode : Constant
Bit rate : 224 Kbps
Channel count : 1 channel
Channel positions : Front: C
Sampling rate : 48.0 KHz
Bit depth : 16 bits
Compression mode : Lossy
Delay relative to video : 377ms
Stream size : 167 MiB (15%)
Title : AC3, 1ch, 48KHz, 224kbps /RUS
Language : Russian
Default : Yes
Forced : No

Menu
00:00:00.000 : en:День 1
00:17:53.760 : en:День 2
00:38:39.360 : en:День 3
00:47:04.560 : en:День 4
00:55:41.160 : en:День 5
01:10:20.760 : en:День 6
01:22:20.160 : en:День 7
01:29:07.560 : en:День 8
01:36:32.760 : en:День 9


Релиз от: seeker05



   Похожие торренты   Торрент   Размер 
В этой теме нет новых непрочитанных сообщений. Девять дней одного года (1961) DVDRip

243 | 16

1.37 ГБ

В этой теме нет новых непрочитанных сообщений. Девять дней одного года (1961) DVDRip-AVC

16 | 3

1.2 ГБ

В этой теме нет новых непрочитанных сообщений. Девять дней одного года (1961) DVDRip от NovaLan

59 | 5

1.47 ГБ

В этой теме нет новых непрочитанных сообщений. Девять дней одного года (1961) WEB-DLRip-AVC от ExKinoRay

165 | 5

1.88 ГБ

В этой теме нет новых непрочитанных сообщений. Девять дней одного года (1961) DVD5 | Реставрация

39 | 3

4.27 ГБ

В этой теме нет новых непрочитанных сообщений. 12 апреля 1961 года. 24 часа [01-02 из 02] (2011) SATRip от Generalfilm

3 | 1

1.07 ГБ

В этой теме нет новых непрочитанных сообщений. Все за одного / Alle for en (2011) DVDRip

0 | 1

1.37 ГБ




Вы не можете начинать темы
Вы не можете отвечать на сообщения
Вы не можете редактировать свои сообщения
Вы не можете удалять свои сообщения
Вы не можете добавлять вложения

Перейти:  
Для Мосгорсуда, Роскомнадзора и рекламодателей: mosgorsud-torrent[собачка]yandex.ru
 Вход
ppkBB3cker v.2 © 2008-2014 @ PPK
[ Time : 1.630s | 17 Queries | GZIP : Off ]

Торрент трекер RUTOR.IN, Не можете зайти на rutor.org? Какой новый адрес рутор? Какое зеркало рутор? Не работает rutor.org и зеркала? Тогда наш торрент специально для вас. Rutor.in неофициальное зеркало rutor. В случае если у Вас заблокирован rutor или вдруг Вы не можете на него зайти, то Вы без труда сможете скачать бесплатно и без рекламы последние новинки кино, игр, сериалов и прочего у нас, на Rutor.in. Не нужно использовать прокси, чтобы зайти на рутор, достаточно воспользоваться нашим ресурсом. Все новые фильмы, игры, сериалы, книги и музыка за 2013 и 2014 годы через торрент бесплатно. Скачивайте фильмы в хорошем качестве, игры для пк, xbox, playstation без регистрации. У нас вы найдете новые Зарубежные сериалы и Русские сериалы 2013, 2014, 2015 годов. Оставайтесь с нами, качайте любимые фильмы, игры, сериалы, книги и музыку.
cron