img image001 image001 image001 image001 image001 image001 image001 image001 image001 image001 image001 image001 image001 image001 image001

Planets Sun Sun Sun
Статистика раздачи
Автор: PriZraK | Размер: 1.43 ГБ | Добавлен: 15 фев 2014
Раздают: 232    Качают: 8
Скачать торрент
Скачать торрент
Описание торрента

СообщениеДобавлено: 15 фев 2014 


#77


Страна: Россия
Студия: Focus Plus Cinema, Lemon Films Studio, Look-film, Vita Aktiv
Жанр: драма, мелодрама
Год выпуска: 2013
Продолжительность: 01:16:13

Перевод: не требуется
Cубтитры: нет
Оригинальная аудиодорожка: русский

Режиссер: Наталья Меркулова, Алексей Чупов

В ролях: Юрий Колокольников, Олеся Судзиловская, Юлия Ауг, Никита Тарасов, Ксения Каталымова, Алексей Чупов, Екатерина Щеглова, Тимур Бадалбейли, Динара Янковская, Павел Артемьев

Описание: История о современных москвичах среднего класса и личных тайнах, которые они прячут за своим достатком и успехом.

[img]http://s017.radikal.ru/i421/1305/df/[img]http://new-team.org/images/logo88x31.png[/img] 595e112678d6.png[/img]

Качество: DVDRip / DVD5 R5
Формат: AVI

Видео: 720x304 (2.35:1), 25.000 fps, XVID ~2226 kbps avg, 0.407 bit/pixel
Аудио: Русский 48 kHz, AC3, 6 ch, 448.00 kbps Constant

Раздача от:
Общее
Полное имя : Intimnye.mesta.2013.O.DVDRip_[Youtracker]_by_avproh.avi
Формат : AVI
Формат/Информация : Audio Video Interleave
Размер файла : 1,43 Гбайт
Продолжительность : 1 ч. 16 м.
Общий поток : 2683 Кбит/сек
Программа кодирования : VirtualDubMod 1.5.10.3 | www.virtualdub-fr.org || (build 2550/release)
Библиотека кодирования : VirtualDubMod build 2550/release

Видео
Идентификатор : 0
Формат : MPEG-4 Visual
Профиль формата : Advanced Simple@L5
Параметр BVOP формата : 1
Параметр QPel формата : Нет
Параметр GMC формата : Без точки перехода
Параметр матрицы формата : Выборочная
Идентификатор кодека : XVID
Идентификатор кодека/Подсказка : XviD
Продолжительность : 1 ч. 16 м.
Битрейт : 2226 Кбит/сек
Ширина : 720 пикселей
Высота : 304 пикселя
Соотношение сторон : 2,35:1
Частота кадров : 25,000 кадров/сек
Цветовое пространство : YUV
Субдискретизация насыщенности : 4:2:0
Битовая глубина : 8 бит
Тип развёртки : Прогрессивная
Метод сжатия : С потерями
Бит/(Пиксели*Кадры) : 0.407
Размер потока : 1,18 Гбайт (83%)
Библиотека кодирования : XviD 73

Аудио
Идентификатор : 1
Формат : AC-3
Формат/Информация : Audio Coding 3
Расширение режима : CM (complete main)
Параметр Endianness формата : Big
Идентификатор кодека : 2000
Продолжительность : 1 ч. 16 м.
Вид битрейта : Постоянный
Битрейт : 448 Кбит/сек
Каналы : 6 каналов
Расположение каналов : Front: L C R, Side: L R, LFE
Частота : 48,0 КГц
Битовая глубина : 16 бит
Метод сжатия : С потерями
Размер потока : 244 Мбайт (17%)
Выравнивание : Разделение по промежуткам
Продолжительность промежутка : 40 мс. (1,00 видеокадр)
Время предзагрузки промежутка : 500 мс.






   Похожие торренты   Торрент   Размер 
В этой теме нет новых непрочитанных сообщений. Интимные места (2013) DVDRip-AVC от New-Team | лицензия

310 | 31

1.46 ГБ

В этой теме нет новых непрочитанных сообщений. Интимные места (2013) DVDRip от New-Team | лицензия

1533 | 98

724.2 МБ

В этой теме нет новых непрочитанных сообщений. Интимные места (2013) DVD5 R5 от New-Team | лицензия

166 | 24

3.8 ГБ

В этой теме нет новых непрочитанных сообщений. Интимные места (2013) DVDRip | iPhone

15 | 5

421.71 МБ

В этой теме нет новых непрочитанных сообщений. Интимные места (2013) WEB-DLRip

193 | 21

1.37 ГБ

В этой теме нет новых непрочитанных сообщений. Белый мавр, или Интимные истории о моих соседях (2012) DVDRip | Лицензия

122 | 15

1.37 ГБ

В этой теме нет новых непрочитанных сообщений. Интимные сцены / Sex Is Comedy (2002) DVDRip

582 | 51

2 ГБ




Вы не можете начинать темы
Вы не можете отвечать на сообщения
Вы не можете редактировать свои сообщения
Вы не можете удалять свои сообщения
Вы не можете добавлять вложения

Перейти:  
Для Мосгорсуда, Роскомнадзора и рекламодателей: mosgorsud-torrent[собачка]yandex.ru
 Вход
ppkBB3cker v.2 © 2008-2014 @ PPK
[ Time : 0.028s | 14 Queries | GZIP : Off ]

Торрент трекер RUTOR.IN, Не можете зайти на rutor.org? Какой новый адрес рутор? Какое зеркало рутор? Не работает rutor.org и зеркала? Тогда наш торрент специально для вас. Rutor.in неофициальное зеркало rutor. В случае если у Вас заблокирован rutor или вдруг Вы не можете на него зайти, то Вы без труда сможете скачать бесплатно и без рекламы последние новинки кино, игр, сериалов и прочего у нас, на Rutor.in. Не нужно использовать прокси, чтобы зайти на рутор, достаточно воспользоваться нашим ресурсом. Все новые фильмы, игры, сериалы, книги и музыка за 2013 и 2014 годы через торрент бесплатно. Скачивайте фильмы в хорошем качестве, игры для пк, xbox, playstation без регистрации. У нас вы найдете новые Зарубежные сериалы и Русские сериалы 2013, 2014, 2015 годов. Оставайтесь с нами, качайте любимые фильмы, игры, сериалы, книги и музыку.