img image001 image001 image001 image001 image001 image001 image001 image001 image001 image001 image001 image001 image001 image001 image001

Planets Sun Sun Sun
Статистика раздачи
Автор: PriZraK | Размер: 926.43 МБ | Добавлен: 15 фев 2014
Раздают: 6    Качают: 2
Скачать торрент
Скачать торрент
Описание торрента

СообщениеДобавлено: 15 фев 2014 



Страна: СССР
Производство: Мосфильм
Жанр: Мелодрама
Год выпуска: 1980

Продолжительность: 01:04:39
Язык: Русский
Режиссер: Борис Яшин
В ролях: Наталья Егорова, Елена Наумкина, Александр Фатюшин, Эммануил Виторган, Ольга Богданова, Федор Одиноков, Софья, Павлова, Юрий Дуванов, Мария Зорина, Инна Кондратьева



Семпл

Описание: В ожидании первенца молодая учительница Маша Павлова вдруг решает, что муж не понимает ее, а следовательно, и не уважает ее интересы. Перестав понимать друг друга, супруги развелись. В ее жизни вновь появляется Николай, когда-то ее любивший, а теперь разведенный и явно страдающий от одиночества. В этот сложный период ожидания первого ребенка не способный на глубокие чувства Николай не станет близким человеком для Маши, все еще любящей Игоря. Но разлука помогла обоим переосмыслить жизнь и вновь обрести способность любить…

Тип релиза: TVRip

Контейнер: AVI
Видео: 704x304 (2.32:1), 25 fps, XviD ~1801 kbps avg, 0.34 bit/pixel
Аудио: 48 kHz, AC3 2.0 ~192.00 kbps avg
Общее
Полное имя : D:1АААОжидание.avi
Формат : AVI
Формат/Информация : Audio Video Interleave
Размер файла : 926 Мбайт
Продолжительность : 1 ч. 4 м.
Общий поток : 2003 Кбит/сек
Программа кодирования : VirtualDubMod 1.5.10.3 | www.virtualdub-fr.org || (build 2550/release)
Библиотека кодирования : VirtualDubMod build 2550/release

Видео
Идентификатор : 0
Формат : MPEG-4 Visual
Профиль формата : Advanced Simple@L5
Параметр BVOP формата : 2
Параметр QPel формата : Нет
Параметр GMC формата : Без точки перехода
Параметр матрицы формата : Default (MPEG)
Режим смешивания : Сжатый битовый поток
Идентификатор кодека : XVID
Идентификатор кодека/Подсказка : XviD
Продолжительность : 1 ч. 4 м.
Битрейт : 1802 Кбит/сек
Ширина : 704 пикселя
Высота : 304 пикселя
Соотношение сторон : 2,35:1
Частота кадров : 25,000 кадров/сек
Цветовое пространство : YUV
Субдискретизация насыщенности : 4:2:0
Битовая глубина : 8 бит
Тип развёртки : Прогрессивная
Метод сжатия : С потерями
Бит/(Пиксели*Кадры) : 0.337
Размер потока : 833 Мбайт (90%)
Библиотека кодирования : XviD 1.2.1 (UTC 2008-12-04)

Аудио
Идентификатор : 1
Формат : AC-3
Формат/Информация : Audio Coding 3
Расширение режима : CM (complete main)
Параметр Endianness формата : Big
Идентификатор кодека : 2000
Продолжительность : 1 ч. 4 м.
Вид битрейта : Постоянный
Битрейт : 192 Кбит/сек
Каналы : 2 канала
Расположение каналов : Front: L R
Частота : 48,0 КГц
Битовая глубина : 16 бит
Метод сжатия : С потерями
Размер потока : 88,8 Мбайт (10%)
Выравнивание : Разделение по промежуткам
Продолжительность промежутка : 40 мс. (1,00 видеокадр)
Время предзагрузки промежутка : 500 мс.





Релиз группа:

Автор рипа:



   Похожие торренты   Торрент   Размер 
В этой теме нет новых непрочитанных сообщений. Ожидание (1980) SATRip от Files-x

28 | 3

2.02 ГБ

В этой теме нет новых непрочитанных сообщений. Ожидание полковника Шалыгина (1981) SATRip

8 | 2

1.37 ГБ

В этой теме нет новых непрочитанных сообщений. Ожидание полковника Шалыгина (1981) SATRip от New-Team

6 | 5

743.85 МБ

В этой теме нет новых непрочитанных сообщений. Ожидание полковника Шалыгина (1981) SATRip-AVC от New-Team

32 | 11

744.81 МБ

В этой теме нет новых непрочитанных сообщений. Ожидание полковника Шалыгина (1981) SATRip от New-Team

57 | 11

1.46 ГБ

В этой теме нет новых непрочитанных сообщений. XXII Летние Олимпийские Игры. 1980 год. Москва. Церемония закрытия (1980) SATRip

31 | 8

1.05 ГБ

В этой теме нет новых непрочитанных сообщений. XXII Летние Олимпийские Игры. 1980 год. Москва. Церемония открытия (1980) SATRip

58 | 76

1.46 ГБ




Вы не можете начинать темы
Вы не можете отвечать на сообщения
Вы не можете редактировать свои сообщения
Вы не можете удалять свои сообщения
Вы не можете добавлять вложения

Перейти:  
Для Мосгорсуда, Роскомнадзора и рекламодателей: mosgorsud-torrent[собачка]yandex.ru
 Вход
ppkBB3cker v.2 © 2008-2014 @ PPK
[ Time : 0.022s | 14 Queries | GZIP : Off ]

Торрент трекер RUTOR.IN, Не можете зайти на rutor.org? Какой новый адрес рутор? Какое зеркало рутор? Не работает rutor.org и зеркала? Тогда наш торрент специально для вас. Rutor.in неофициальное зеркало rutor. В случае если у Вас заблокирован rutor или вдруг Вы не можете на него зайти, то Вы без труда сможете скачать бесплатно и без рекламы последние новинки кино, игр, сериалов и прочего у нас, на Rutor.in. Не нужно использовать прокси, чтобы зайти на рутор, достаточно воспользоваться нашим ресурсом. Все новые фильмы, игры, сериалы, книги и музыка за 2013 и 2014 годы через торрент бесплатно. Скачивайте фильмы в хорошем качестве, игры для пк, xbox, playstation без регистрации. У нас вы найдете новые Зарубежные сериалы и Русские сериалы 2013, 2014, 2015 годов. Оставайтесь с нами, качайте любимые фильмы, игры, сериалы, книги и музыку.