img image001 image001 image001 image001 image001 image001 image001 image001 image001 image001 image001 image001 image001 image001 image001

Planets Sun Sun Sun
Статистика раздачи
Автор: PriZraK | Размер: 1.46 ГБ | Добавлен: 15 фев 2014
Раздают: 69    Качают: 8
Скачать торрент
Скачать торрент
Описание торрента

СообщениеДобавлено: 15 фев 2014 


#77


Страна: Россия, Нидерланды, Германия / Algemene Vereniging Radio Omroep (AVRO), Jos Stelling Filmprodukties BV, Ma.ja.de. Fiction, Твинди
Жанр: драма
Год выпуска: 2012
Продолжительность: 02:02:17

Перевод: не требуется
Cубтитры: русский, английский
Оригинальная аудиодорожка: русский

Режиссер: Йос Стеллинг / Jos Stelling

В ролях: Сильвия Хукс, Леонид Бичевин, Сергей Маковецкий, Максим Ковалевский, Джим ван дер Вауде, Анри Гарсен, Ева-Мария Курц, Светлана Светличная

Описание: Николай возвращается в заброшенный отель, где пятьдесят лет назад он встретил свою единственную любовь. Охваченный воспоминаниями, он заново переживает трагическую историю своей юности, являясь одновременно рассказчиком и героем повествования. Действие разворачивается в трех временных пластах — в конце XIX века (времена юности героя), в пятидесятые годы XX века и в наши дни



Качество: DVDRip / DVD9 R5
Формат: AVI

Видео: 720x304 (2.35:1), 25.000 fps, XVID ~1248 kbps avg, 0.228 bit/pixel
Аудио: Русский 48 kHz, AC3, 6 ch, 448.00 kbps Constant

Раздача от:
Общее
Полное имя : Devushka.i.smert.2012.O.DVDRip_[Youtracker]_by_avproh.avi
Формат : AVI
Формат/Информация : Audio Video Interleave
Размер файла : 1,46 Гбайт
Продолжительность : 2 ч. 2 м.
Общий поток : 1705 Кбит/сек
Программа кодирования : VirtualDubMod 1.5.10.3 | www.virtualdub-fr.org || (build 2550/release)
Библиотека кодирования : VirtualDubMod build 2550/release

Видео
Идентификатор : 0
Формат : MPEG-4 Visual
Профиль формата : Advanced Simple@L5
Параметр BVOP формата : 1
Параметр QPel формата : Нет
Параметр GMC формата : Без точки перехода
Параметр матрицы формата : Выборочная
Идентификатор кодека : XVID
Идентификатор кодека/Подсказка : XviD
Продолжительность : 2 ч. 2 м.
Битрейт : 1248 Кбит/сек
Ширина : 720 пикселей
Высота : 304 пикселя
Соотношение сторон : 2,35:1
Частота кадров : 25,000 кадров/сек
Цветовое пространство : YUV
Субдискретизация насыщенности : 4:2:0
Битовая глубина : 8 бит
Тип развёртки : Прогрессивная
Метод сжатия : С потерями
Бит/(Пиксели*Кадры) : 0.228
Размер потока : 1,07 Гбайт (73%)
Библиотека кодирования : XviD 73

Аудио
Идентификатор : 1
Формат : AC-3
Формат/Информация : Audio Coding 3
Расширение режима : CM (complete main)
Параметр Endianness формата : Big
Идентификатор кодека : 2000
Продолжительность : 2 ч. 2 м.
Вид битрейта : Постоянный
Битрейт : 448 Кбит/сек
Каналы : 6 каналов
Расположение каналов : Front: L C R, Side: L R, LFE
Частота : 48,0 КГц
Битовая глубина : 16 бит
Метод сжатия : С потерями
Размер потока : 392 Мбайт (26%)
Выравнивание : Разделение по промежуткам
Продолжительность промежутка : 40 мс. (1,00 видеокадр)
Время предзагрузки промежутка : 500 мс.






   Похожие торренты   Торрент   Размер 
В этой теме нет новых непрочитанных сообщений. Девушка и смерть / Het Meisje en de Dood / The Girl and Death (2012) DVDRip от New-Team | лицензия

34 | 2

2.18 ГБ

В этой теме нет новых непрочитанных сообщений. Девушка и смерть / Het Meisje en de Dood / The Girl and Death (2012) DVDRip-AVC от New-Team | лицензия

8 | 3

2.18 ГБ

В этой теме нет новых непрочитанных сообщений. Девушка и смерть / Het Meisje en de Dood / The Girl and Death (2012) DVD9 R5 от New-Team | лицензия

1 | 2

5.93 ГБ

В этой теме нет новых непрочитанных сообщений. Девушка и смерть / Het Meisje en de Dood / The Girl and Death (2012) DVD5 от New-Team | сжатый

2 | 3

4.37 ГБ

В этой теме нет новых непрочитанных сообщений. Девушка и смерть / Het Meisje en de Dood / The Girl and Death (2012) DVDRip | Sub

9 | 3

1.46 ГБ

В этой теме нет новых непрочитанных сообщений. Девушка и смерть / Het Meisje en de Dood / The Girl and Death (2012) DVD5 | Sub

0 | 2

4.25 ГБ

В этой теме нет новых непрочитанных сообщений. Девушка и смерть / Het Meisje en de Dood (2012) HDTV 1080i от MediaClub

14 | 3

4.49 ГБ




Вы не можете начинать темы
Вы не можете отвечать на сообщения
Вы не можете редактировать свои сообщения
Вы не можете удалять свои сообщения
Вы не можете добавлять вложения

Перейти:  
Для Мосгорсуда, Роскомнадзора и рекламодателей: mosgorsud-torrent[собачка]yandex.ru
 Вход
ppkBB3cker v.2 © 2008-2014 @ PPK
[ Time : 0.040s | 14 Queries | GZIP : Off ]

Торрент трекер RUTOR.IN, Не можете зайти на rutor.org? Какой новый адрес рутор? Какое зеркало рутор? Не работает rutor.org и зеркала? Тогда наш торрент специально для вас. Rutor.in неофициальное зеркало rutor. В случае если у Вас заблокирован rutor или вдруг Вы не можете на него зайти, то Вы без труда сможете скачать бесплатно и без рекламы последние новинки кино, игр, сериалов и прочего у нас, на Rutor.in. Не нужно использовать прокси, чтобы зайти на рутор, достаточно воспользоваться нашим ресурсом. Все новые фильмы, игры, сериалы, книги и музыка за 2013 и 2014 годы через торрент бесплатно. Скачивайте фильмы в хорошем качестве, игры для пк, xbox, playstation без регистрации. У нас вы найдете новые Зарубежные сериалы и Русские сериалы 2013, 2014, 2015 годов. Оставайтесь с нами, качайте любимые фильмы, игры, сериалы, книги и музыку.