img image001 image001 image001 image001 image001 image001 image001 image001 image001 image001 image001 image001 image001 image001 image001

Planets Sun Sun Sun
Статистика раздачи
Автор: PriZraK | Размер: 2.94 ГБ | Добавлен: 15 фев 2014
Раздают: 2    Качают: 9
Скачать торрент
Скачать торрент
Описание торрента

СообщениеДобавлено: 15 фев 2014 




Информация о фильме
Название: Из жизни Потапова
Год выхода: 1985
Жанр: Драма
Режиссер: Николай Скуйбин
В ролях: Тамара Акулова, Михаил Глузский, Татьяна Догилева, Олег Мокшанцев, Александр Филиппенко, Мария Игнатова, Николай Пеньков, Павел Махотин, Александр Сафронов.

О фильме:
Киноповесть о руководителе большого коллектива, работающего в оборонной промышленности, крупном ученом, который взял на себя ответственность в трудных условиях продолжать сорвавшиеся опыты. Последовавший инфаркт дал повод для его переизбрания, а ближайший друг Астахов, обвинив Потапова в легкомыслии и самоуправстве, добивается прекращения испытаний. Потапова отстраняют от дел, от него уходит жена, происходит несчастье с близким человеком. Но он продолжает работать...
Страна: CCСР
Продолжительность: 01:32:07
Файл
Кодек: MPEG2
Качество: DVB
Видео: MPEG2 Video 704x576 (4:3) 25fps 4 283kbps
Звук: MPEG Audio 48000Hz stereo 192kbps


General
Complete name : D:Video«Из жизни Потапова»_Звезда«Из жизни Потапова».mpg
Format : MPEG-PS
File size : 2.94 GiB
Duration : 1h 32mn
Overall bit rate mode : Variable
Overall bit rate : 4 566 Kbps
Video
ID : 224 (0xE0)
Format : MPEG Video
Format version : Version 2
Format profile : Main@Main
Format settings, BVOP : Yes
Format settings, Matrix : Custom
Format settings, GOP : M=1, N=25
Duration : 1h 32mn
Bit rate mode : Variable
Bit rate : 4 283 Kbps
Maximum bit rate : 4 840 Kbps
Width : 704 pixels
Height : 576 pixels
Display aspect ratio : 4:3
Frame rate : 25.000 fps
Standard : PAL
Color space : YUV
Chroma subsampling : 4:2:0
Bit depth : 8 bits
Scan type : Interlaced
Scan order : Top Field First
Compression mode : Lossy
Bits/(Pixel*Frame) : 0.423
Stream size : 2.76 GiB (94%)
Audio
ID : 192 (0xC0)
Format : MPEG Audio
Format version : Version 1
Format profile : Layer 2
Duration : 1h 32mn
Bit rate mode : Constant
Bit rate : 192 Kbps
Channel(s) : 2 channels
Sampling rate : 48.0 KHz
Compression mode : Lossy
Delay relative to video : 15ms
Stream size : 127 MiB (4%)



   Похожие торренты   Торрент   Размер 
В этой теме нет новых непрочитанных сообщений. Опасно для жизни! (1985) DVDRip

574 | 51

1.37 ГБ

В этой теме нет новых непрочитанных сообщений. Центр - Признаки жизни (1985) FLAC

16 | 2

280.35 МБ

В этой теме нет новых непрочитанных сообщений. Я любил вас больше жизни (1985) DVDRip

9 | 4

1.37 ГБ

В этой теме нет новых непрочитанных сообщений. Опасно для жизни! (1985) DVDRip от KinoRay & Sheikn

48 | 2

699.97 МБ

В этой теме нет новых непрочитанных сообщений. Я любил вас больше жизни (1985) DVDRip от New-Team

21 | 6

745.61 МБ

В этой теме нет новых непрочитанных сообщений. Я любил вас больше жизни (1985) DVDRip-AVC от New-Team

19 | 6

744.38 МБ

В этой теме нет новых непрочитанных сообщений. Научный Институт Муди: Путешествие Жизни / Moody Institute of Science: Journey of Life (1985) VHSRip

0 | 1

628.91 МБ




Вы не можете начинать темы
Вы не можете отвечать на сообщения
Вы не можете редактировать свои сообщения
Вы не можете удалять свои сообщения
Вы не можете добавлять вложения

Перейти:  
Для Мосгорсуда, Роскомнадзора и рекламодателей: mosgorsud-torrent[собачка]yandex.ru
 Вход
ppkBB3cker v.2 © 2008-2014 @ PPK
[ Time : 0.020s | 15 Queries | GZIP : Off ]

cron