img image001 image001 image001 image001 image001 image001 image001 image001 image001 image001 image001 image001 image001 image001 image001

Planets Sun Sun Sun
Статистика раздачи
Автор: PriZraK | Размер: 1.46 ГБ | Добавлен: 15 фев 2014
Раздают: 76    Качают: 4
Скачать торрент
Скачать торрент
Описание торрента

СообщениеДобавлено: 15 фев 2014 


«Нас не изменить!»


#77


Страна: Россия / Фонд кино, Front Line Studio, Кинокомпания CTB
Жанр: драма, криминал
Год выпуска: 2013
Продолжительность: 01:32:57

Перевод: не требуется
Cубтитры: нет
Оригинальная аудиодорожка: русский

Режиссер: Антон Борматов

В ролях: Александр Ратников, Иван Фоминов, Григорий Иванец, Павел Ерлыков, Дарья Мингазетдинова, Юлия Маньковская, Евгений Березин, Никита Кукушкин, Сергей Шнырев, Максим Павлов...

Описание: Фильм о самой закрытой части футбольных болельщиков — околофутбольных хулиганах. Они — самые агрессивные и жестокие представители мира футбольных фанатов. Они — элита околофутбола. Кем бы они ни были в обычной жизни — студентами или банкирами, музыкантами или автомеханиками, на самом деле все они — одна «фирма». Попасть в «фирму» очень сложно, но если ты в ней оказался — это на всю жизнь. И обратного пути нет.



Качество: DVDRip / DVD9 R5
Формат: AVI

Видео: 720x400 (16:9), 25.000 fps, XVID ~1787 kbps avg, 0.248 bit/pixel
Аудио: Русский 48 kHz, AC3, 6 ch, 448.00 kbps Constant
Общее
Полное имя : Okolofutbola.2013.O.DVDRip_[Youtracker]_by_avproh.avi
Формат : AVI
Формат/Информация : Audio Video Interleave
Размер файла : 1,46 Гбайт
Продолжительность : 1 ч. 32 м.
Общий поток : 2244 Кбит/сек
Программа кодирования : VirtualDubMod 1.5.10.3 | www.virtualdub-fr.org || (build 2550/release)
Библиотека кодирования : VirtualDubMod build 2550/release

Видео
Идентификатор : 0
Формат : MPEG-4 Visual
Профиль формата : Advanced Simple@L5
Параметр BVOP формата : 1
Параметр QPel формата : Нет
Параметр GMC формата : Без точки перехода
Параметр матрицы формата : Выборочная
Идентификатор кодека : XVID
Идентификатор кодека/Подсказка : XviD
Продолжительность : 1 ч. 32 м.
Битрейт : 1787 Кбит/сек
Ширина : 720 пикселей
Высота : 400 пикселей
Соотношение сторон : 16:9
Частота кадров : 25,000 кадров/сек
Цветовое пространство : YUV
Субдискретизация насыщенности : 4:2:0
Битовая глубина : 8 бит
Тип развёртки : Прогрессивная
Метод сжатия : С потерями
Бит/(Пиксели*Кадры) : 0.248
Размер потока : 1,16 Гбайт (80%)
Библиотека кодирования : XviD 73

Аудио
Идентификатор : 1
Формат : AC-3
Формат/Информация : Audio Coding 3
Расширение режима : CM (complete main)
Параметр Endianness формата : Big
Идентификатор кодека : 2000
Продолжительность : 1 ч. 32 м.
Вид битрейта : Постоянный
Битрейт : 448 Кбит/сек
Каналы : 6 каналов
Расположение каналов : Front: L C R, Side: L R, LFE
Частота : 48,0 КГц
Битовая глубина : 16 бит
Метод сжатия : С потерями
Размер потока : 298 Мбайт (20%)
Выравнивание : Разделение по промежуткам
Продолжительность промежутка : 40 мс. (1,00 видеокадр)
Время предзагрузки промежутка : 500 мс.






   Похожие торренты   Торрент   Размер 
В этой теме нет новых непрочитанных сообщений. Околофутбола (2013) DVDRip от New-Team | лицензия

38 | 5

744.99 МБ

В этой теме нет новых непрочитанных сообщений. Околофутбола (2013) DVDRip-AVC от New-Team | лицензия

74 | 3

1.45 ГБ

В этой теме нет новых непрочитанных сообщений. Околофутбола (2013) HDRip от New-Team | Лицензия

17 | 6

1.46 ГБ

В этой теме нет новых непрочитанных сообщений. Околофутбола (2013) HDRip от New-Team | Лицензия

53 | 5

745.13 МБ

В этой теме нет новых непрочитанных сообщений. Околофутбола (2013) BDRip-AVC от New-Team | Лицензия

142 | 9

1.45 ГБ

В этой теме нет новых непрочитанных сообщений. Околофутбола (2013) BDRip-AVC от New-Team | Лицензия

293 | 9

744.85 МБ

В этой теме нет новых непрочитанных сообщений. Околофутбола (2013) DVD9 R5 от New-Team | лицензия

6 | 5

5.19 ГБ




Вы не можете начинать темы
Вы не можете отвечать на сообщения
Вы не можете редактировать свои сообщения
Вы не можете удалять свои сообщения
Вы не можете добавлять вложения

Перейти:  
Для Мосгорсуда, Роскомнадзора и рекламодателей: mosgorsud-torrent[собачка]yandex.ru
 Вход
ppkBB3cker v.2 © 2008-2014 @ PPK
[ Time : 1.636s | 15 Queries | GZIP : Off ]

cron