img image001 image001 image001 image001 image001 image001 image001 image001 image001 image001 image001 image001 image001 image001 image001

Planets Sun Sun Sun
Статистика раздачи
Автор: PriZraK | Размер: 1.45 ГБ | Добавлен: 15 фев 2014
Раздают: 76    Качают: 4
Скачать торрент
Скачать торрент
Описание торрента

СообщениеДобавлено: 15 фев 2014 


«Нас не изменить!»


#77


Страна: Россия / Фонд кино, Front Line Studio, Кинокомпания CTB
Жанр: драма, криминал
Год выпуска: 2013
Продолжительность: 01:32:57

Перевод: не требуется
Cубтитры: нет
Оригинальная аудиодорожка: русский

Режиссер: Антон Борматов

В ролях: Александр Ратников, Иван Фоминов, Григорий Иванец, Павел Ерлыков, Дарья Мингазетдинова, Юлия Маньковская, Евгений Березин, Никита Кукушкин, Сергей Шнырев, Максим Павлов...

Описание: Фильм о самой закрытой части футбольных болельщиков — околофутбольных хулиганах. Они — самые агрессивные и жестокие представители мира футбольных фанатов. Они — элита околофутбола. Кем бы они ни были в обычной жизни — студентами или банкирами, музыкантами или автомеханиками, на самом деле все они — одна «фирма». Попасть в «фирму» очень сложно, но если ты в ней оказался — это на всю жизнь. И обратного пути нет.



Качество: DVDRip-AVC / DVD9 R5
Формат: MKV

Видео: 720x576@1024x576 (16:9), 25.000 fps, H264 ~1792 kbps avg, 0.173 bit/pixel
Аудио: Русский 48 kHz, AC3, 6 ch, 448.00 kbps Constant
Общее
Полное имя : Okolofutbola.2013.O.DVDRip-AVC_[Youtracker]_by_avproh.mkv
Формат : Matroska
Версия формата : Version 2
Размер файла : 1,45 Гбайт
Продолжительность : 1 ч. 32 м.
Общий поток : 2241 Кбит/сек
Дата кодирования : UTC 2013-11-01 15:32:50
Программа кодирования : mkvmerge v6.1.0 ('Old Devil') built on Mar 4 2013 09:10:42
Библиотека кодирования : libebml v1.3.0 + libmatroska v1.4.0

Видео
Идентификатор : 1
Формат : AVC
Формат/Информация : Advanced Video Codec
Профиль формата : High@L4.1
Параметр CABAC формата : Да
Параметр ReFrames формата : 6 кадров
Идентификатор кодека : V_MPEG4/ISO/AVC
Продолжительность : 1 ч. 32 м.
Битрейт : 1792 Кбит/сек
Ширина : 720 пикселей
Высота : 576 пикселей
Соотношение сторон : 16:9
Режим частоты кадров : Постоянный
Частота кадров : 25,000 кадров/сек
Стандарт вещания : PAL
Цветовое пространство : YUV
Субдискретизация насыщенности : 4:2:0
Битовая глубина : 8 бит
Тип развёртки : Прогрессивная
Бит/(Пиксели*Кадры) : 0.173
Размер потока : 1,14 Гбайт (78%)
Библиотека кодирования : x264 core 138 r2356 a1d3d17
Настройки программы : cabac=1 / ref=6 / deblock=1:-2:-1 / analyse=0x3:0x113 / me=umh / subme=10 / psy=1 / psy_rd=1.00:0.05 / mixed_ref=1 / me_range=32 / chroma_me=1 / trellis=2 / 8x8dct=1 / cqm=0 / deadzone=21,11 / fast_pskip=0 / chroma_qp_offset=-3 / threads=9 / lookahead_threads=1 / sliced_threads=0 / nr=0 / decimate=0 / interlaced=0 / bluray_compat=0 / constrained_intra=0 / bframes=8 / b_pyramid=2 / b_adapt=2 / b_bias=0 / direct=3 / weightb=1 / open_gop=0 / weightp=2 / keyint=250 / keyint_min=25 / scenecut=40 / intra_refresh=0 / rc=2pass / mbtree=0 / bitrate=1792 / ratetol=1.0 / qcomp=0.60 / qpmin=0 / qpmax=69 / qpstep=4 / cplxblur=20.0 / qblur=0.5 / ip_ratio=1.40 / pb_ratio=1.30 / aq=1:1.00
Default : Да
Forced : Нет

Аудио
Идентификатор : 2
Формат : AC-3
Формат/Информация : Audio Coding 3
Расширение режима : CM (complete main)
Параметр Endianness формата : Big
Идентификатор кодека : A_AC3
Продолжительность : 1 ч. 32 м.
Вид битрейта : Постоянный
Битрейт : 448 Кбит/сек
Каналы : 6 каналов
Расположение каналов : Front: L C R, Side: L R, LFE
Частота : 48,0 КГц
Битовая глубина : 16 бит
Метод сжатия : С потерями
Размер потока : 298 Мбайт (20%)
Default : Да
Forced : Нет





   Похожие торренты   Торрент   Размер 
В этой теме нет новых непрочитанных сообщений. Околофутбола (2013) DVDRip от New-Team | лицензия

76 | 5

1.46 ГБ

В этой теме нет новых непрочитанных сообщений. Околофутбола (2013) DVDRip от New-Team | лицензия

43 | 6

744.99 МБ

В этой теме нет новых непрочитанных сообщений. Околофутбола (2013) HDRip от New-Team | Лицензия

57 | 6

745.13 МБ

В этой теме нет новых непрочитанных сообщений. Околофутбола (2013) BDRip-AVC от New-Team | Лицензия

292 | 9

744.85 МБ

В этой теме нет новых непрочитанных сообщений. Околофутбола (2013) DVD9 R5 от New-Team | лицензия

6 | 5

5.19 ГБ

В этой теме нет новых непрочитанных сообщений. Околофутбола (2013) BDRip-AVC от New-Team | Лицензия

156 | 10

1.45 ГБ

В этой теме нет новых непрочитанных сообщений. Околофутбола (2013) HDRip от New-Team | Лицензия

19 | 6

1.46 ГБ




Вы не можете начинать темы
Вы не можете отвечать на сообщения
Вы не можете редактировать свои сообщения
Вы не можете удалять свои сообщения
Вы не можете добавлять вложения

Перейти:  
Для Мосгорсуда, Роскомнадзора и рекламодателей: mosgorsud-torrent[собачка]yandex.ru
 Вход
ppkBB3cker v.2 © 2008-2014 @ PPK
[ Time : 0.052s | 15 Queries | GZIP : Off ]

Торрент трекер RUTOR.IN, Не можете зайти на rutor.org? Какой новый адрес рутор? Какое зеркало рутор? Не работает rutor.org и зеркала? Тогда наш торрент специально для вас. Rutor.in неофициальное зеркало rutor. В случае если у Вас заблокирован rutor или вдруг Вы не можете на него зайти, то Вы без труда сможете скачать бесплатно и без рекламы последние новинки кино, игр, сериалов и прочего у нас, на Rutor.in. Не нужно использовать прокси, чтобы зайти на рутор, достаточно воспользоваться нашим ресурсом. Все новые фильмы, игры, сериалы, книги и музыка за 2013 и 2014 годы через торрент бесплатно. Скачивайте фильмы в хорошем качестве, игры для пк, xbox, playstation без регистрации. У нас вы найдете новые Зарубежные сериалы и Русские сериалы 2013, 2014, 2015 годов. Оставайтесь с нами, качайте любимые фильмы, игры, сериалы, книги и музыку.