img image001 image001 image001 image001 image001 image001 image001 image001 image001 image001 image001 image001 image001 image001 image001

Planets Sun Sun Sun
Статистика раздачи
Автор: PriZraK | Размер: 5.53 ГБ | Добавлен: 15 фев 2014
Раздают: 19    Качают: 8
Скачать торрент
Скачать торрент
Описание торрента

СообщениеДобавлено: 15 фев 2014 




Информация о фильме
Название: Укрощение строптивых
Год выхода: 2009
Жанр: Комедия
Режиссер: Игорь Каленов
В ролях: Анна Семенович, Игорь Лифанов, Юлия Галкина, Андрей Федорцов, Андрей Носков, Юрий Кузнецов, Михаил Багдасаров, Борис Грачевский, Чарли

О фильме:
Чумовая блондинка с неотделимыми атрибутами: чихуахуа в сумке и богатым бойфрендом под каблуком, успешный бизнесмен «Мурзик» — владелец частного самолёта в сопровождении подружки-модели летят в Ниццу, а попадают в Тайгу. Тайга — это не лазурный берег с яхтами и закрытыми вечеринками, не жаркое сафари на джипах и плясками с аборигенами. Выращенным в тепличных условиях яппи и их капризным подружкам будет устроена проверка суровым русским «отдыхом». Бриллиантами и коктейльными платьями здесь никого не покоришь, в ход пойдут «защитная вуаль» от комаров и брюки строгого покроя, а одна из строптивых красавиц останется в лесу наедине с брутальным и немного чокнутым мужиком…


Страна: Россия
Продолжительность: 01:37:59
Перевод: Оригинал

Файл
Кодек: x264
Качество: BDRip (источник: Blu-Ray)
Видео: 1920x812 (2,35:1), 23,976 fps, 7470 Кбит/сек
Аудио: AC-3, 6 ch, 448 kbps (Rus)
Скриншоты

Общее
Уникальный идентификатор : 229299334419840792843067809844162676027 (0xAC81720845AD732185B77B781EE3453B)
Полное имя : F:Укрощение строптивых.2009.mkv
Формат : Matroska
Версия формата : Version 2
Размер файла : 5,53 Гбайт
Продолжительность : 1 ч. 38 м.
Общий поток : 8079 Кбит/сек
Дата кодирования : UTC 2013-09-21 15:22:57
Программа кодирования : mkvmerge v5.8.0 ('No Sleep / Pillow') built on Sep 2 2012 15:37:04
Библиотека кодирования : libebml v1.2.3 + libmatroska v1.3.0

Видео
Идентификатор : 1
Формат : AVC
Формат/Информация : Advanced Video Codec
Профиль формата : High@L4.1
Параметр CABAC формата : Да
Параметр ReFrames формата : 5 кадров
Идентификатор кодека : V_MPEG4/ISO/AVC
Продолжительность : 1 ч. 38 м.
Битрейт : 7470 Кбит/сек
Ширина : 1920 пикселей
Высота : 812 пикселей
Соотношение сторон : 2,35:1
Режим частоты кадров : Постоянный
Частота кадров : 23,976 кадра/сек
Цветовое пространство : YUV
Субдискретизация насыщенности : 4:2:0
Битовая глубина : 8 бит
Тип развёртки : Прогрессивная
Бит/(Пиксели*Кадры) : 0.200
Размер потока : 5,11 Гбайт (92%)
Библиотека кодирования : x264 core 128 r2216M 198a7ea
Настройки программы : cabac=1 / ref=5 / deblock=1:0:0 / analyse=0x3:0x133 / me=umh / subme=10 / psy=1 / psy_rd=1.00:0.00 / mixed_ref=1 / me_range=32 / chroma_me=1 / trellis=2 / 8x8dct=1 / cqm=0 / deadzone=21,11 / fast_pskip=1 / chroma_qp_offset=-2 / threads=4 / lookahead_threads=1 / sliced_threads=0 / nr=0 / decimate=1 / interlaced=0 / bluray_compat=0 / constrained_intra=0 / bframes=8 / b_pyramid=2 / b_adapt=2 / b_bias=0 / direct=3 / weightb=1 / open_gop=0 / weightp=2 / keyint=240 / keyint_min=23 / scenecut=40 / intra_refresh=0 / rc=crf / mbtree=0 / crf=18.0 / qcomp=0.60 / qpmin=10 / qpmax=69 / qpstep=4 / ip_ratio=1.40 / pb_ratio=1.30 / aq=1:1.00
Язык : Russian
Default : Да
Forced : Нет

Аудио
Идентификатор : 2
Формат : AC-3
Формат/Информация : Audio Coding 3
Расширение режима : CM (complete main)
Параметр Endianness формата : Big
Идентификатор кодека : A_AC3
Продолжительность : 1 ч. 38 м.
Вид битрейта : Постоянный
Битрейт : 448 Кбит/сек
Каналы : 6 каналов
Расположение каналов : Front: L C R, Side: L R, LFE
Частота : 48,0 КГц
Битовая глубина : 16 бит
Метод сжатия : С потерями
Размер потока : 314 Мбайт (6%)
Язык : Russian
Default : Да
Forced : Нет

Меню
00:00:00.000 : en:
00:07:31.200 : en:
00:13:28.307 : en:
00:19:50.147 : en:
00:25:57.138 : en:
00:32:12.639 : en:
00:39:22.526 : en:
00:45:41.071 : en:
00:55:17.105 : en:
01:00:41.846 : en:
01:05:05.902 : en:
01:10:44.073 : en:
01:15:12.925 : en:
01:22:15.472 : en:
01:28:56.289 : en:
01:35:47.032 : en:
frame I:996 Avg QP:18.42 size:169544
frame P:31634 Avg QP:19.69 size: 79462
frame B:108348 Avg QP:21.68 size: 26995



   Похожие торренты   Торрент   Размер 
В этой теме нет новых непрочитанных сообщений. Укрощение строптивых (2009) BDRip-AVC от potroks

12 | 3

1.46 ГБ

В этой теме нет новых непрочитанных сообщений. Укрощение строптивых (2009) BDRip от HQ-VIDEO

12 | 5

1.46 ГБ

В этой теме нет новых непрочитанных сообщений. Укрощение строптивых (2009) BDRip от HELLYWOOD

2 | 8

1.46 ГБ

В этой теме нет новых непрочитанных сообщений. Укрощение строптивых (2009) BDRip от HQCLUB

43 | 4

1.46 ГБ

В этой теме нет новых непрочитанных сообщений. Укрощение строптивых (2009) BDRip 720p от NOLIMITS-TEAM

7 | 3

2.21 ГБ

В этой теме нет новых непрочитанных сообщений. Укрощение строптивых (2009) DVDRip

17 | 7

701.96 МБ

В этой теме нет новых непрочитанных сообщений. Укрощение строптивых (2009) BluRay Remux от Generalfilm

1 | 5

18.09 ГБ




Вы не можете начинать темы
Вы не можете отвечать на сообщения
Вы не можете редактировать свои сообщения
Вы не можете удалять свои сообщения
Вы не можете добавлять вложения

Перейти:  
Для Мосгорсуда, Роскомнадзора и рекламодателей: mosgorsud-torrent[собачка]yandex.ru
 Вход
ppkBB3cker v.2 © 2008-2014 @ PPK
[ Time : 0.036s | 14 Queries | GZIP : On ]

Торрент трекер RUTOR.IN, Не можете зайти на rutor.org? Какой новый адрес рутор? Какое зеркало рутор? Не работает rutor.org и зеркала? Тогда наш торрент специально для вас. Rutor.in неофициальное зеркало rutor. В случае если у Вас заблокирован rutor или вдруг Вы не можете на него зайти, то Вы без труда сможете скачать бесплатно и без рекламы последние новинки кино, игр, сериалов и прочего у нас, на Rutor.in. Не нужно использовать прокси, чтобы зайти на рутор, достаточно воспользоваться нашим ресурсом. Все новые фильмы, игры, сериалы, книги и музыка за 2013 и 2014 годы через торрент бесплатно. Скачивайте фильмы в хорошем качестве, игры для пк, xbox, playstation без регистрации. У нас вы найдете новые Зарубежные сериалы и Русские сериалы 2013, 2014, 2015 годов. Оставайтесь с нами, качайте любимые фильмы, игры, сериалы, книги и музыку.