img image001 image001 image001 image001 image001 image001 image001 image001 image001 image001 image001 image001 image001 image001 image001

Planets Sun Sun Sun
Статистика раздачи
Автор: PriZraK | Размер: 2.18 ГБ | Добавлен: 15 фев 2014
Раздают: 79    Качают: 8
Скачать торрент
Скачать торрент
Описание торрента

СообщениеДобавлено: 15 фев 2014 


#77
Страна: СССР
Производство: Гостелерадио, Ленфильм
Жанр: криминал, детектив
Год выпуска: 1981
Продолжительность: 02:26:11 (01:13:47 + 01:12:24)

Перевод: не требуется
Оригинальная аудиодорожка: русский
Cубтитры: нет

Режиссер: Игорь Масленников

В ролях:
Василий Ливанов, Виталий Соломин, Рина Зеленая, Никита Михалков, Александр Адабашьян, Светлана Крючкова, Олег Янковский, Ирина Купченко, Алла Демидова, Борислав Брондуков, Евгений Стеблов, Сергей Мартинсон, Олег Пальмов...

Описание:
В английском графстве Девоншир произошла загадочная смерть владельца поместья сэра Чарльза Баскервиля. Хотя смерть вызвана естественными причинами, недалеко от его трупа найдены следы какого-то существа. Из Америки в поместье приезжает племянник и наследник покойного — сэр Генри Баскервиль. Однако, доктор Мортимер, чувствуя опасность, грозящую новому хозяину, приводит молодого баронета к Шерлоку Холмсу, который вместе со своим помощником и биографом доктором Ватсоном должны решить загадку торфяных болот, расположенных около поместья…





Исходник: DVD9 R5
Тип релиза: DVDRip
Контейнер: AVI

Видео: 704x528 (4:3), 25 fps, XviD ~ 1679 kbps avg, 0.181 bit/pixel
Аудио: 48 kHz, Dolby AC3 5.1, 448 kbps

Раздача от:
Общее
Полное имя : Sobaka.Baskerviley.1981.DVDRip_[New-team]_by_AVP Studio.avi
Формат : AVI
Формат/Информация : Audio Video Interleave
Размер файла : 1,10 Гбайт
Продолжительность : 1 ч. 13 м.
Общий поток : 2137 Кбит/сек
Программа кодирования : VirtualDubModRus 1.5.10.2 (build 2542/release)
Библиотека кодирования : VirtualDubMod build 2542/release

Видео
Идентификатор : 0
Формат : MPEG-4 Visual
Профиль формата : Advanced Simple@L5
Параметр BVOP формата : 1
Параметр QPel формата : Нет
Параметр GMC формата : Без точки перехода
Параметр матрицы формата : Выборочная
Идентификатор кодека : XVID
Идентификатор кодека/Подсказка : XviD
Продолжительность : 1 ч. 13 м.
Битрейт : 1679 Кбит/сек
Ширина : 704 пикселя
Высота : 528 пикселей
Соотношение сторон : 4:3
Частота кадров : 25,000 кадров/сек
Цветовое пространство : YUV
Субдискретизация насыщенности : 4:2:0
Битовая глубина : 8 бит
Тип развёртки : Прогрессивная
Метод сжатия : С потерями
Бит/(Пиксели*Кадры) : 0.181
Размер потока : 886 Мбайт (79%)
Библиотека кодирования : XviD 73

Аудио
Идентификатор : 1
Формат : AC-3
Формат/Информация : Audio Coding 3
Расширение режима : CM (complete main)
Идентификатор кодека : 2000
Продолжительность : 1 ч. 13 м.
Вид битрейта : Постоянный
Битрейт : 448 Кбит/сек
Каналы : 6 каналов
Расположение каналов : Front: L C R, Side: L R, LFE
Частота : 48,0 КГц
Битовая глубина : 16 бит
Метод сжатия : С потерями
Размер потока : 236 Мбайт (21%)
Выравнивание : Разделение по промежуткам
Продолжительность промежутка : 40 мс. (1,00 видеокадр)
Время предзагрузки промежутка : 500 мс



Сценарий фильма близок к сюжету книги и различается в мелочах и второстепенных сюжетных линиях. В книге по сравнению с фильмом семейное предание, документ XVIII века, о Хьюго Баскервиле изложен более подробно. Дано больше деталей о жизни Чарльза Баскервиля и о том, как он сколотил состояние. С другой стороны в книге нет многих мелочей, которые добавляют атмосферу фильму. В нём Ватсон и Генри Баскервиль в нетрезвом виде отправляются ловить каторжника. Далее Генри при помощи алкоголя пытается избежать преследующего его кошмара. В повести не упоминается о нетрезвом состоянии героев, тогда как в фильме они постоянно «под градусом».
Отдельного упоминания стоит некоторая комедийность вышеописанных моментов в фильме, которые отсутствуют в книге. В частности, образ сэра Генри в исполнении Никиты Михалкова стал явно комическим.
Также в повести нет многих замечательных реплик персонажей (перевод Н. Волжиной): об овсянке, органах осязания у сыщиков (фраза взята из другого рассказа) и других.
В книге сэр Чарльз Баскервиль погибает 13 июля, а события, связанные с приездом наследника, и расследование происходят с сентября по ноябрь. В фильме сэр Чарльз Баскервиль погибает 14 января, а дальнейшая история разворачивается в конце зимы — начале весны.
По повести собака была застрелена не Лестрейдом, а самим Холмсом.
В фильме присутствует сцена перестрелки и гибели Стэплтона. По книге же Холмс, Ватсон и Лестрейд, отправившись на заброшенный рудник, по дороге обнаруживают только брошенный Стэплтоном ботинок сэра Генри. Следов же самого Стэплтона им обнаружить так и не удалось. Выясняется лишь, что до рудника он в ту ночь так и не добрался.
В повести мнимая «сестра» преступника Стэплтона, красавица из Коста-Рики Бэрил Гарсия совсем непохожа на своего «брата»-англичанина. «Он бесцветный блондин с серыми глазами, она брюнетка - таких жгучих брюнеток мне еще не приходилось встречать в Англии» - так описывает Ватсон свою первую встречу с ней. Наша «Бэрил Гарсия» в исполнении Ирины Купченко, наоборот, очень напоминает англичанку.



   Похожие торренты   Торрент   Размер 
В этой теме нет новых непрочитанных сообщений. Шерлок Холмс и доктор Ватсон: Собака Баскервилей (1981) DVDRip от New-team

180 | 12

1.45 ГБ

В этой теме нет новых непрочитанных сообщений. Шерлок Холмс и доктор Ватсон: Собака Баскервилей (1981) DVDRip-AVC от New-team

252 | 6

2.18 ГБ

В этой теме нет новых непрочитанных сообщений. Шерлок Холмс и доктор Ватсон: Собака Баскервилей (1981) BDRip 1080p

48 | 18

15.52 ГБ

В этой теме нет новых непрочитанных сообщений. Шерлок Холмс и доктор Ватсон. Собака Баскервилей (1981) BDRip от HQCLUB

85 | 13

2.9 ГБ

В этой теме нет новых непрочитанных сообщений. Шерлок Холмс и доктор Ватсон: Сокровища Агры (1983) DVDRip от New-team

181 | 36

2.19 ГБ

В этой теме нет новых непрочитанных сообщений. Шерлок Холмс и доктор Ватсон: Сокровища Агры (1983) DVDRip от New-team

109 | 11

1.46 ГБ

В этой теме нет новых непрочитанных сообщений. Шерлок Холмс и доктор Ватсон: Двадцатый век начинается (1986) DVDRip от New-team

45 | 15

1.46 ГБ




Вы не можете начинать темы
Вы не можете отвечать на сообщения
Вы не можете редактировать свои сообщения
Вы не можете удалять свои сообщения
Вы не можете добавлять вложения

Перейти:  
Для Мосгорсуда, Роскомнадзора и рекламодателей: mosgorsud-torrent[собачка]yandex.ru
 Вход
ppkBB3cker v.2 © 2008-2014 @ PPK
[ Time : 0.062s | 15 Queries | GZIP : Off ]

Торрент трекер RUTOR.IN, Не можете зайти на rutor.org? Какой новый адрес рутор? Какое зеркало рутор? Не работает rutor.org и зеркала? Тогда наш торрент специально для вас. Rutor.in неофициальное зеркало rutor. В случае если у Вас заблокирован rutor или вдруг Вы не можете на него зайти, то Вы без труда сможете скачать бесплатно и без рекламы последние новинки кино, игр, сериалов и прочего у нас, на Rutor.in. Не нужно использовать прокси, чтобы зайти на рутор, достаточно воспользоваться нашим ресурсом. Все новые фильмы, игры, сериалы, книги и музыка за 2013 и 2014 годы через торрент бесплатно. Скачивайте фильмы в хорошем качестве, игры для пк, xbox, playstation без регистрации. У нас вы найдете новые Зарубежные сериалы и Русские сериалы 2013, 2014, 2015 годов. Оставайтесь с нами, качайте любимые фильмы, игры, сериалы, книги и музыку.
cron