img image001 image001 image001 image001 image001 image001 image001 image001 image001 image001 image001 image001 image001 image001 image001

Planets Sun Sun Sun
Статистика раздачи
Автор: PriZraK | Размер: 1.46 ГБ | Добавлен: 15 фев 2014
Раздают: 47    Качают: 16
Скачать торрент
Скачать торрент
Описание торрента

СообщениеДобавлено: 15 фев 2014 


#77
Страна: СССР
Производство: Гостелерадио, Ленфильм
Жанр: криминал, детектив
Год выпуска: 1986
Продолжительность: 02:28:44 (01:17:17 + 01:11:27)

Перевод: не требуется
Оригинальная аудиодорожка: русский
Cубтитры: нет

Режиссер: Игорь Масленников

В ролях:
Василий Ливанов, Виталий Соломин, Борислав Брондуков, Иннокентий Смоктуновский, Борис Клюев, Александр Романцов, Елена Сафонова, Лариса Гузеева, Игорь Ефимов, Леонид Куравлев, Рина Зеленая...

Описание:
Начинается XX век… Шерлок Холмс и доктор Ватсон покинули дом на Бейкер-стрит. Шерлок Холмс уехал в Суссекс и занялся пчеловодством. Доктор Ватсон женился и вернулся к врачебной практике. Миссис Хадсон также уехала с Бейкер-стрит, но наказала создать в гостиной музей Шерлока Холмса. Инспектор Лестрейд ушёл на пенсию.
Однако в новом веке появились новые, куда более опасные преступники, замешанные в политике и международных отношениях. Европа оказалась на грани крупной войны, и старые герои вынуждены «тряхнуть стариной»…





Исходник: DVD9 R5
Тип релиза: DVDRip
Контейнер: AVI

Видео: 688x512 (4:3), 25 fps, XviD ~ 1264 kbps avg, 0.143 bit/pixel
Аудио: 48 kHz, MP3 2.0, 128 kbps

Раздача от:
Общее
Полное имя : Dvadcatyy.vek.nachinaetsya.1986.DVDRip-1,46_[New-team]_by_AVP Studio.avi
Формат : AVI
Формат/Информация : Audio Video Interleave
Размер файла : 775 Мбайт
Продолжительность : 1 ч. 17 м.
Общий поток : 1401 Кбит/сек
Программа кодирования : VirtualDubModRus 1.5.10.2 (build 2542/release)
Библиотека кодирования : VirtualDubMod build 2542/release

Видео
Идентификатор : 0
Формат : MPEG-4 Visual
Профиль формата : Advanced Simple@L5
Параметр BVOP формата : 1
Параметр QPel формата : Нет
Параметр GMC формата : Без точки перехода
Параметр матрицы формата : Выборочная
Идентификатор кодека : XVID
Идентификатор кодека/Подсказка : XviD
Продолжительность : 1 ч. 17 м.
Битрейт : 1264 Кбит/сек
Ширина : 688 пикселей
Высота : 512 пикселей
Соотношение сторон : 4:3
Частота кадров : 25,000 кадров/сек
Цветовое пространство : YUV
Субдискретизация насыщенности : 4:2:0
Битовая глубина : 8 бит
Тип развёртки : Прогрессивная
Метод сжатия : С потерями
Бит/(Пиксели*Кадры) : 0.143
Размер потока : 699 Мбайт (90%)
Библиотека кодирования : XviD 73

Аудио
Идентификатор : 1
Формат : MPEG Audio
Версия формата : Version 1
Профиль формата : Layer 3
Идентификатор кодека : 55
Идентификатор кодека/Подсказка : MP3
Продолжительность : 1 ч. 17 м.
Вид битрейта : Постоянный
Битрейт : 128 Кбит/сек
Каналы : 2 канала
Частота : 48,0 КГц
Метод сжатия : С потерями
Размер потока : 70,8 Мбайт (9%)
Выравнивание : Соединение по промежуткам
Продолжительность промежутка : 40 мс. (1,00 видеокадр)
Время предзагрузки промежутка : 504 мс.
Библиотека кодирования : LAME3.99r
Настройки программы : -m s -V 4 -q 2 -lowpass 17 -b 128



В финальных кадрах фильма режиссёр фильма Игорь Масленников исполнил роль киномеханика.
В конце второй серии на сейфе фон Борка выставлен код 1912 April. Затем Ватсон, после монолога о «волках и овцах» в сердцах ударяет сейф, в этот момент циферблаты прокручиваются и останавливается код 1914 August — август 1914 года, начало Первой мировой войны (эта деталь присутствует в оригинале рассказа Конан Дойля «Его прощальный поклон», где барон фон Херлинг удивляется, как фон Борк «сумел предвидеть точную дату»). Примечательно что только время действия "Последнего поклона" совпадает с временем действия в фильме. "Палец Инженера" и "Второе Пятно" происходили в 1888-1889 гг, "Чертежи Брюса-Партингтона" в 1895-м.
Ресторан, в котором ужинают Холмс и Ватсон в середине второй серии — это перемонтированный павильон, в котором снималась гостиная миссис Хадсон.
В фильме премьер-министр Великобритании — лорд Томас Бэллинджер, хотя на самом деле в это время премьер-министром в 1908—1916 годах был Герберт Генри Асквит. Кстати, Смоктуновский в фильме очень похож именно на Герберта Генри Асквита.
Эпизод с места обнаружения тела Кадогена Уэста снимали в электродепо «Автово».
В небольшой роли Фергюсона, секретаря полковника Старка, снялся Игорь Ефимов, озвучивший в сериале инспектора Лестрейда и ряд второстепенных персонажей
В эпизоде с пропавшим письмом явная нестыковка: сначала Майкрофт Холмс заявляет, что письмо получено вчера, а затем премьер-министр в тот же день говорит, что письмо получено 6 дней назад
В нарезке кинохроники, сопровождающей текст телеграммы Майкрофта Холмса в середине второй серии, показаны маневры британских танков Vickers Medium Mark I, производившихся в 1920-х годах. Между тем, на момент действия фильма (канун Первой мировой войны) Великобритания ещё попросту не располагала танками - первый британский танк Mark I был применен в бою лишь в сентябре 1916 года.



   Похожие торренты   Торрент   Размер 
В этой теме нет новых непрочитанных сообщений. Шерлок Холмс и доктор Ватсон: Двадцатый век начинается (1986) DVDRip от New-team

143 | 17

2.19 ГБ

В этой теме нет новых непрочитанных сообщений. Шерлок Холмс и доктор Ватсон: Двадцатый век начинается (1986) DVDRip-AVC от New-team

111 | 15

2.18 ГБ

В этой теме нет новых непрочитанных сообщений. Шерлок Холмс и доктор Ватсон (1979-1986) WEB-DL

407 | 70

9.37 ГБ

В этой теме нет новых непрочитанных сообщений. Шерлок Холмс и доктор Ватсон: Собака Баскервилей (1981) DVDRip от New-team

84 | 8

2.18 ГБ

В этой теме нет новых непрочитанных сообщений. Шерлок Холмс и доктор Ватсон: Собака Баскервилей (1981) DVDRip от New-team

182 | 13

1.45 ГБ

В этой теме нет новых непрочитанных сообщений. Шерлок Холмс и доктор Ватсон: Сокровища Агры (1983) DVDRip-AVC от New-team

114 | 14

2.18 ГБ

В этой теме нет новых непрочитанных сообщений. Шерлок Холмс и доктор Ватсон: Сокровища Агры (1983) DVDRip от New-team

109 | 14

1.46 ГБ




Вы не можете начинать темы
Вы не можете отвечать на сообщения
Вы не можете редактировать свои сообщения
Вы не можете удалять свои сообщения
Вы не можете добавлять вложения

Перейти:  
Для Мосгорсуда, Роскомнадзора и рекламодателей: mosgorsud-torrent[собачка]yandex.ru
 Вход
ppkBB3cker v.2 © 2008-2014 @ PPK
[ Time : 0.489s | 16 Queries | GZIP : Off ]

Торрент трекер RUTOR.IN, Не можете зайти на rutor.org? Какой новый адрес рутор? Какое зеркало рутор? Не работает rutor.org и зеркала? Тогда наш торрент специально для вас. Rutor.in неофициальное зеркало rutor. В случае если у Вас заблокирован rutor или вдруг Вы не можете на него зайти, то Вы без труда сможете скачать бесплатно и без рекламы последние новинки кино, игр, сериалов и прочего у нас, на Rutor.in. Не нужно использовать прокси, чтобы зайти на рутор, достаточно воспользоваться нашим ресурсом. Все новые фильмы, игры, сериалы, книги и музыка за 2013 и 2014 годы через торрент бесплатно. Скачивайте фильмы в хорошем качестве, игры для пк, xbox, playstation без регистрации. У нас вы найдете новые Зарубежные сериалы и Русские сериалы 2013, 2014, 2015 годов. Оставайтесь с нами, качайте любимые фильмы, игры, сериалы, книги и музыку.