img image001 image001 image001 image001 image001 image001 image001 image001 image001 image001 image001 image001 image001 image001 image001

Planets Sun Sun Sun
Статистика раздачи
Автор: PriZraK | Размер: 2.18 ГБ | Добавлен: 15 фев 2014
Раздают: 111    Качают: 15
Скачать торрент
Скачать торрент
Описание торрента

СообщениеДобавлено: 15 фев 2014 


#77
Страна: СССР
Производство: Гостелерадио, Ленфильм
Жанр: криминал, детектив
Год выпуска: 1986
Продолжительность: 02:28:44 (01:17:17 + 01:11:27)

Перевод: не требуется
Оригинальная аудиодорожка: русский
Cубтитры: нет

Режиссер: Игорь Масленников

В ролях:
Василий Ливанов, Виталий Соломин, Борислав Брондуков, Иннокентий Смоктуновский, Борис Клюев, Александр Романцов, Елена Сафонова, Лариса Гузеева, Игорь Ефимов, Леонид Куравлев, Рина Зеленая...

Описание:
Начинается XX век… Шерлок Холмс и доктор Ватсон покинули дом на Бейкер-стрит. Шерлок Холмс уехал в Суссекс и занялся пчеловодством. Доктор Ватсон женился и вернулся к врачебной практике. Миссис Хадсон также уехала с Бейкер-стрит, но наказала создать в гостиной музей Шерлока Холмса. Инспектор Лестрейд ушёл на пенсию.
Однако в новом веке появились новые, куда более опасные преступники, замешанные в политике и международных отношениях. Европа оказалась на грани крупной войны, и старые герои вынуждены «тряхнуть стариной»…





Исходник: DVD9 R5
Тип релиза: DVDRip-AVC
Контейнер: MKV

Видео: 720->768x572 (4:3), 25 fps, H264 ~ 1651 kbps avg, 0.160 bit/pixel
Аудио: 48 kHz, Dolby AC3 5.1, 448 kbps

Раздача от:
Общее
Полное имя : Dvadcatyy.vek.nachinaetsya.1986.DVDRip-AVC_[New-team]_by_AVP Studio.mkv
Формат : Matroska
Версия формата : Version 4 / Version 2
Размер файла : 1,13 Гбайт
Продолжительность : 1 ч. 17 м.
Общий поток : 2100 Кбит/сек
Название фильма : Dvadcatyy.vek.nachinaetsya.1986.DVDRip-AVC_[New-team]_by_AVP Studio
Дата кодирования : UTC 2013-11-08 11:56:47
Программа кодирования : mkvmerge v6.5.0 ('Isn't she lovely') built on Oct 20 2013 12:50:05
Библиотека кодирования : libebml v1.3.0 + libmatroska v1.4.1

Видео
Идентификатор : 1
Формат : AVC
Формат/Информация : Advanced Video Codec
Профиль формата : High@L4.1
Параметр CABAC формата : Да
Параметр ReFrames формата : 6 кадров
Идентификатор кодека : V_MPEG4/ISO/AVC
Продолжительность : 1 ч. 17 м.
Битрейт : 1651 Кбит/сек
Ширина : 720 пикселей
Высота : 572 пикселя
Соотношение сторон : 4:3
Частота кадров : 25,000 кадров/сек
Цветовое пространство : YUV
Субдискретизация насыщенности : 4:2:0
Битовая глубина : 8 бит
Тип развёртки : Прогрессивная
Бит/(Пиксели*Кадры) : 0.160
Размер потока : 890 Мбайт (77%)
Заголовок : Источник DVD
Библиотека кодирования : x264 core 138 r2356 a1d3d17
Настройки программы : cabac=1 / ref=6 / deblock=1:-2:-1 / analyse=0x3:0x113 / me=umh / subme=10 / psy=1 / psy_rd=1.00:0.05 / mixed_ref=1 / me_range=32 / chroma_me=1 / trellis=2 / 8x8dct=1 / cqm=0 / deadzone=21,11 / fast_pskip=0 / chroma_qp_offset=-3 / threads=3 / lookahead_threads=1 / sliced_threads=0 / nr=0 / decimate=0 / interlaced=0 / bluray_compat=0 / constrained_intra=0 / bframes=8 / b_pyramid=2 / b_adapt=2 / b_bias=0 / direct=3 / weightb=1 / open_gop=0 / weightp=2 / keyint=250 / keyint_min=25 / scenecut=40 / intra_refresh=0 / rc=2pass / mbtree=0 / bitrate=1651 / ratetol=1.0 / qcomp=0.60 / qpmin=0 / qpmax=69 / qpstep=4 / cplxblur=20.0 / qblur=0.5 / ip_ratio=1.40 / pb_ratio=1.30 / aq=1:1.00
Язык : Russian
Default : Да
Forced : Нет

Аудио
Идентификатор : 2
Формат : AC-3
Формат/Информация : Audio Coding 3
Расширение режима : CM (complete main)
Идентификатор кодека : A_AC3
Продолжительность : 1 ч. 17 м.
Вид битрейта : Постоянный
Битрейт : 448 Кбит/сек
Каналы : 6 каналов
Расположение каналов : Front: L C R, Side: L R, LFE
Частота : 48,0 КГц
Битовая глубина : 16 бит
Метод сжатия : С потерями
Размер потока : 248 Мбайт (21%)
Заголовок : Источник DVD Dolby Digital 5,1 448kb
Язык : Russian
Default : Да
Forced : Нет



В финальных кадрах фильма режиссёр фильма Игорь Масленников исполнил роль киномеханика.
В конце второй серии на сейфе фон Борка выставлен код 1912 April. Затем Ватсон, после монолога о «волках и овцах» в сердцах ударяет сейф, в этот момент циферблаты прокручиваются и останавливается код 1914 August — август 1914 года, начало Первой мировой войны (эта деталь присутствует в оригинале рассказа Конан Дойля «Его прощальный поклон», где барон фон Херлинг удивляется, как фон Борк «сумел предвидеть точную дату»). Примечательно что только время действия "Последнего поклона" совпадает с временем действия в фильме. "Палец Инженера" и "Второе Пятно" происходили в 1888-1889 гг, "Чертежи Брюса-Партингтона" в 1895-м.
Ресторан, в котором ужинают Холмс и Ватсон в середине второй серии — это перемонтированный павильон, в котором снималась гостиная миссис Хадсон.
В фильме премьер-министр Великобритании — лорд Томас Бэллинджер, хотя на самом деле в это время премьер-министром в 1908—1916 годах был Герберт Генри Асквит. Кстати, Смоктуновский в фильме очень похож именно на Герберта Генри Асквита.
Эпизод с места обнаружения тела Кадогена Уэста снимали в электродепо «Автово».
В небольшой роли Фергюсона, секретаря полковника Старка, снялся Игорь Ефимов, озвучивший в сериале инспектора Лестрейда и ряд второстепенных персонажей
В эпизоде с пропавшим письмом явная нестыковка: сначала Майкрофт Холмс заявляет, что письмо получено вчера, а затем премьер-министр в тот же день говорит, что письмо получено 6 дней назад
В нарезке кинохроники, сопровождающей текст телеграммы Майкрофта Холмса в середине второй серии, показаны маневры британских танков Vickers Medium Mark I, производившихся в 1920-х годах. Между тем, на момент действия фильма (канун Первой мировой войны) Великобритания ещё попросту не располагала танками - первый британский танк Mark I был применен в бою лишь в сентябре 1916 года.



   Похожие торренты   Торрент   Размер 
В этой теме нет новых непрочитанных сообщений. Шерлок Холмс и доктор Ватсон: Двадцатый век начинается (1986) DVDRip от New-team

143 | 17

2.19 ГБ

В этой теме нет новых непрочитанных сообщений. Шерлок Холмс и доктор Ватсон: Двадцатый век начинается (1986) DVDRip от New-team

47 | 16

1.46 ГБ

В этой теме нет новых непрочитанных сообщений. Шерлок Холмс и доктор Ватсон (1979-1986) WEB-DL

407 | 70

9.37 ГБ

В этой теме нет новых непрочитанных сообщений. Шерлок Холмс и доктор Ватсон: Сокровища Агры (1983) DVDRip от New-team

196 | 34

2.19 ГБ

В этой теме нет новых непрочитанных сообщений. Шерлок Холмс и доктор Ватсон: Сокровища Агры (1983) DVDRip-AVC от New-team

114 | 14

2.18 ГБ

В этой теме нет новых непрочитанных сообщений. Шерлок Холмс и доктор Ватсон: Собака Баскервилей (1981) DVDRip от New-team

182 | 13

1.45 ГБ

В этой теме нет новых непрочитанных сообщений. Шерлок Холмс и доктор Ватсон: Собака Баскервилей (1981) DVDRip-AVC от New-team

261 | 7

2.18 ГБ




Вы не можете начинать темы
Вы не можете отвечать на сообщения
Вы не можете редактировать свои сообщения
Вы не можете удалять свои сообщения
Вы не можете добавлять вложения

Перейти:  
Для Мосгорсуда, Роскомнадзора и рекламодателей: mosgorsud-torrent[собачка]yandex.ru
 Вход
ppkBB3cker v.2 © 2008-2014 @ PPK
[ Time : 0.077s | 14 Queries | GZIP : Off ]

Торрент трекер RUTOR.IN, Не можете зайти на rutor.org? Какой новый адрес рутор? Какое зеркало рутор? Не работает rutor.org и зеркала? Тогда наш торрент специально для вас. Rutor.in неофициальное зеркало rutor. В случае если у Вас заблокирован rutor или вдруг Вы не можете на него зайти, то Вы без труда сможете скачать бесплатно и без рекламы последние новинки кино, игр, сериалов и прочего у нас, на Rutor.in. Не нужно использовать прокси, чтобы зайти на рутор, достаточно воспользоваться нашим ресурсом. Все новые фильмы, игры, сериалы, книги и музыка за 2013 и 2014 годы через торрент бесплатно. Скачивайте фильмы в хорошем качестве, игры для пк, xbox, playstation без регистрации. У нас вы найдете новые Зарубежные сериалы и Русские сериалы 2013, 2014, 2015 годов. Оставайтесь с нами, качайте любимые фильмы, игры, сериалы, книги и музыку.