img image001 image001 image001 image001 image001 image001 image001 image001 image001 image001 image001 image001 image001 image001 image001

Planets Sun Sun Sun
Статистика раздачи
Автор: PriZraK | Размер: 743.89 МБ | Добавлен: 15 фев 2014
Раздают: 8    Качают: 7
Скачать торрент
Скачать торрент
Описание торрента

СообщениеДобавлено: 15 фев 2014 


#77
Страна: СССР
Производство: Мосфильм

Жанр: триллер, драма, криминал
Год выпуска: 1990
Продолжительность: 01:17:44

Перевод: не требуется
Оригинальная аудиодорожка: русский
Cубтитры: нет

Режиссер: Михаил Аветиков

В ролях:
Владимир Стеклов, Сейдулла Молдаханов, Игорь Чулков, Анна Портная, Юлия Рутберг, Ахмед Джераев, Герман Нурханов, Леонид Курнышев, Иван Бирюков, Семен Аранбаев, Светлана Ладыжкина, Ш.Самандоров, У.Мамаджанов, Н.Волокитина, В.Камышев, Н.Файзиев, Э.Ристови, А.Оразов, И.Мальцев, А.Эгамназаров, О.Фузайлов, Х.Икрамов, О.Рахматов, Б.Бикаев, В.Ким, Ф.Бракоп, Л.Шлотгауэр, В.Логинов, А.Сатаров, С.Сафаров, Павел Сиротин, Вадим Померанцев...

Описание:
Несколько меланхоличный инженер московского НИИ Гусев в поезде, везущем его к месту назначения командировки, выпивает бутылку водки, после чего места его пребывания следующие: багажник автомобиля, бескрайняя степь и соляные прииски, где он становится рабом. Затем его выкупает колонист-немец, его арестовывают, он бежит и сталкивается с мафией. В результате имеет выступающую челюсть, сдвинутые брови, загар, бицепсы и никакой меланхолии...





Исходник: DVD5 R5
Тип релиза: DVDRip
Контейнер: AVI

Видео: 704x416 (1,692:1), 25 fps, XviD ~ 1 200 kbps avg, 0.164 bit/pixel
Аудио: 48 kHz, Dolby AC3 1.0, 128 kbps

Раздача от:
Общее
Полное имя : Savoy.1990.DVDRip_[Youtracker]_by_AVP Studio.avi
Формат : AVI
Формат/Информация : Audio Video Interleave
Размер файла : 744 Мбайт
Продолжительность : 1 ч. 17 м.
Общий поток : 1338 Кбит/сек
Программа кодирования : VirtualDubModRus 1.5.10.2 (build 2542/release)
Библиотека кодирования : VirtualDubMod build 2542/release

Видео
Идентификатор : 0
Формат : MPEG-4 Visual
Профиль формата : Advanced Simple@L5
Параметр BVOP формата : 1
Параметр QPel формата : Нет
Параметр GMC формата : Без точки перехода
Параметр матрицы формата : Выборочная
Идентификатор кодека : XVID
Идентификатор кодека/Подсказка : XviD
Продолжительность : 1 ч. 17 м.
Битрейт : 1200 Кбит/сек
Ширина : 704 пикселя
Высота : 416 пикселей
Соотношение сторон : 1,692
Частота кадров : 25,000 кадров/сек
Цветовое пространство : YUV
Субдискретизация насыщенности : 4:2:0
Битовая глубина : 8 бит
Тип развёртки : Прогрессивная
Метод сжатия : С потерями
Бит/(Пиксели*Кадры) : 0.164
Размер потока : 667 Мбайт (90%)
Библиотека кодирования : XviD 73

Аудио
Идентификатор : 1
Формат : AC-3
Формат/Информация : Audio Coding 3
Расширение режима : CM (complete main)
Идентификатор кодека : 2000
Продолжительность : 1 ч. 17 м.
Вид битрейта : Постоянный
Битрейт : 128 Кбит/сек
Каналы : 1 канал
Расположение каналов : Front: C
Частота : 48,0 КГц
Битовая глубина : 16 бит
Метод сжатия : С потерями
Размер потока : 71,2 Мбайт (10%)
Выравнивание : Разделение по промежуткам
Продолжительность промежутка : 40 мс. (1,00 видеокадр)
Время предзагрузки промежутка : 500 мс



Частично фильм снимался в Киргизии в селе Интернациональное и Узбекистане. Особенностью села Интернациональное являлось то, что в нём, в основном, проживали этнические немцы, которые после развала СССР в большинстве эмигрировали в Германию.



   Похожие торренты   Торрент   Размер 
В этой теме нет новых непрочитанных сообщений. Савой (1990) DVDRip-AVC от New-Team

10 | 5

744.46 МБ

В этой теме нет новых непрочитанных сообщений. Савой (1990) DVDRip

0 | 34

699.43 МБ

В этой теме нет новых непрочитанных сообщений. Савой (1990) DVD5 by гаврила

2 | 2

3.05 ГБ

В этой теме нет новых непрочитанных сообщений. Зверобой (1990) DVDRip от New-Team

61 | 19

1.45 ГБ

В этой теме нет новых непрочитанных сообщений. Зверобой (1990) DVDRip от New-Team

43 | 16

2.19 ГБ

В этой теме нет новых непрочитанных сообщений. Зверобой (1990) DVDRip-AVC от New-Team

53 | 34

2.19 ГБ

В этой теме нет новых непрочитанных сообщений. ...По прозвищу «Зверь» (1990) DVDRip от New-Team

7 | 26

1.46 ГБ




Вы не можете начинать темы
Вы не можете отвечать на сообщения
Вы не можете редактировать свои сообщения
Вы не можете удалять свои сообщения
Вы не можете добавлять вложения

Перейти:  
Для Мосгорсуда, Роскомнадзора и рекламодателей: mosgorsud-torrent[собачка]yandex.ru
 Вход
ppkBB3cker v.2 © 2008-2014 @ PPK
[ Time : 0.040s | 16 Queries | GZIP : Off ]

cron