img image001 image001 image001 image001 image001 image001 image001 image001 image001 image001 image001 image001 image001 image001 image001

Planets Sun Sun Sun
Статистика раздачи
Автор: PriZraK | Размер: 744.46 МБ | Добавлен: 15 фев 2014
Раздают: 11    Качают: 6
Скачать торрент
Скачать торрент
Описание торрента

СообщениеДобавлено: 15 фев 2014 


#77
Страна: СССР
Производство: Мосфильм

Жанр: триллер, драма, криминал
Год выпуска: 1990
Продолжительность: 01:17:44

Перевод: не требуется
Оригинальная аудиодорожка: русский
Cубтитры: нет

Режиссер: Михаил Аветиков

В ролях:
Владимир Стеклов, Сейдулла Молдаханов, Игорь Чулков, Анна Портная, Юлия Рутберг, Ахмед Джераев, Герман Нурханов, Леонид Курнышев, Иван Бирюков, Семен Аранбаев, Светлана Ладыжкина, Ш.Самандоров, У.Мамаджанов, Н.Волокитина, В.Камышев, Н.Файзиев, Э.Ристови, А.Оразов, И.Мальцев, А.Эгамназаров, О.Фузайлов, Х.Икрамов, О.Рахматов, Б.Бикаев, В.Ким, Ф.Бракоп, Л.Шлотгауэр, В.Логинов, А.Сатаров, С.Сафаров, Павел Сиротин, Вадим Померанцев...

Описание:
Несколько меланхоличный инженер московского НИИ Гусев в поезде, везущем его к месту назначения командировки, выпивает бутылку водки, после чего места его пребывания следующие: багажник автомобиля, бескрайняя степь и соляные прииски, где он становится рабом. Затем его выкупает колонист-немец, его арестовывают, он бежит и сталкивается с мафией. В результате имеет выступающую челюсть, сдвинутые брови, загар, бицепсы и никакой меланхолии...





Исходник: DVD5 R5
Тип релиза: DVDRip-AVC
Контейнер: MKV

Видео: 712->778x460 (1,661:1), 25 fps, H264 ~ 1 209 kbps avg, 0.148 bit/pixel
Аудио: 48 kHz, Dolby AC3 1.0, 128 kbps

Раздача от:
Общее
Полное имя : Savoy.1990.DVDRip-AVC_[Youtracker]_by_AVP Studio.mkv
Формат : Matroska
Версия формата : Version 2
Размер файла : 744 Мбайт
Продолжительность : 1 ч. 17 м.
Общий поток : 1339 Кбит/сек
Дата кодирования : UTC 2013-10-29 15:39:19
Программа кодирования : mkvmerge v6.1.0 ('Old Devil') built on Mar 4 2013 09:10:42
Библиотека кодирования : libebml v1.3.0 + libmatroska v1.4.0

Видео
Идентификатор : 1
Формат : AVC
Формат/Информация : Advanced Video Codec
Профиль формата : High@L4.1
Параметр CABAC формата : Да
Параметр ReFrames формата : 6 кадров
Идентификатор кодека : V_MPEG4/ISO/AVC
Продолжительность : 1 ч. 17 м.
Битрейт : 1209 Кбит/сек
Ширина : 712 пикселей
Высота : 460 пикселей
Соотношение сторон : 1,661
Соотношение сторон в оригинале : 1,660
Частота кадров : 25,000 кадров/сек
Цветовое пространство : YUV
Субдискретизация насыщенности : 4:2:0
Битовая глубина : 8 бит
Тип развёртки : Прогрессивная
Бит/(Пиксели*Кадры) : 0.148
Размер потока : 658 Мбайт (88%)
Библиотека кодирования : x264 core 138 r2356 a1d3d17
Настройки программы : cabac=1 / ref=6 / deblock=1:-2:-1 / analyse=0x3:0x113 / me=umh / subme=10 / psy=1 / psy_rd=1.00:0.05 / mixed_ref=1 / me_range=32 / chroma_me=1 / trellis=2 / 8x8dct=1 / cqm=0 / deadzone=21,11 / fast_pskip=0 / chroma_qp_offset=-3 / threads=3 / lookahead_threads=1 / sliced_threads=0 / nr=0 / decimate=0 / interlaced=0 / bluray_compat=0 / constrained_intra=0 / bframes=8 / b_pyramid=2 / b_adapt=2 / b_bias=0 / direct=3 / weightb=1 / open_gop=0 / weightp=2 / keyint=250 / keyint_min=25 / scenecut=40 / intra_refresh=0 / rc=2pass / mbtree=0 / bitrate=1209 / ratetol=1.0 / qcomp=0.60 / qpmin=0 / qpmax=69 / qpstep=4 / cplxblur=20.0 / qblur=0.5 / ip_ratio=1.40 / pb_ratio=1.30 / aq=1:1.00
Default : Да
Forced : Нет

Аудио
Идентификатор : 2
Формат : AC-3
Формат/Информация : Audio Coding 3
Расширение режима : CM (complete main)
Идентификатор кодека : A_AC3
Продолжительность : 1 ч. 17 м.
Вид битрейта : Постоянный
Битрейт : 128 Кбит/сек
Каналы : 1 канал
Расположение каналов : Front: C
Частота : 48,0 КГц
Битовая глубина : 16 бит
Метод сжатия : С потерями
Размер потока : 71,2 Мбайт (10%)
Default : Да
Forced : Нет



Частично фильм снимался в Киргизии в селе Интернациональное и Узбекистане. Особенностью села Интернациональное являлось то, что в нём, в основном, проживали этнические немцы, которые после развала СССР в большинстве эмигрировали в Германию.



   Похожие торренты   Торрент   Размер 
В этой теме нет новых непрочитанных сообщений. Савой (1990) DVDRip от New-Team

8 | 7

743.89 МБ

В этой теме нет новых непрочитанных сообщений. Савой (1990) DVDRip

0 | 34

699.43 МБ

В этой теме нет новых непрочитанных сообщений. Савой (1990) DVD5 by гаврила

2 | 2

3.05 ГБ

В этой теме нет новых непрочитанных сообщений. Зверобой (1990) DVDRip-AVC от New-Team

54 | 36

2.19 ГБ

В этой теме нет новых непрочитанных сообщений. Зверобой (1990) DVDRip от New-Team

60 | 18

1.45 ГБ

В этой теме нет новых непрочитанных сообщений. Зверобой (1990) DVDRip от New-Team

43 | 16

2.19 ГБ

В этой теме нет новых непрочитанных сообщений. Царская охота (1990) DVDRip от New-Team

50 | 10

1.46 ГБ




Вы не можете начинать темы
Вы не можете отвечать на сообщения
Вы не можете редактировать свои сообщения
Вы не можете удалять свои сообщения
Вы не можете добавлять вложения

Перейти:  
Для Мосгорсуда, Роскомнадзора и рекламодателей: mosgorsud-torrent[собачка]yandex.ru
 Вход
ppkBB3cker v.2 © 2008-2014 @ PPK
[ Time : 0.038s | 17 Queries | GZIP : Off ]

Торрент трекер RUTOR.IN, Не можете зайти на rutor.org? Какой новый адрес рутор? Какое зеркало рутор? Не работает rutor.org и зеркала? Тогда наш торрент специально для вас. Rutor.in неофициальное зеркало rutor. В случае если у Вас заблокирован rutor или вдруг Вы не можете на него зайти, то Вы без труда сможете скачать бесплатно и без рекламы последние новинки кино, игр, сериалов и прочего у нас, на Rutor.in. Не нужно использовать прокси, чтобы зайти на рутор, достаточно воспользоваться нашим ресурсом. Все новые фильмы, игры, сериалы, книги и музыка за 2013 и 2014 годы через торрент бесплатно. Скачивайте фильмы в хорошем качестве, игры для пк, xbox, playstation без регистрации. У нас вы найдете новые Зарубежные сериалы и Русские сериалы 2013, 2014, 2015 годов. Оставайтесь с нами, качайте любимые фильмы, игры, сериалы, книги и музыку.
cron