img image001 image001 image001 image001 image001 image001 image001 image001 image001 image001 image001 image001 image001 image001 image001

Planets Sun Sun Sun
Статистика раздачи
Автор: PriZraK | Размер: 744.29 МБ | Добавлен: 15 фев 2014
Раздают: 2    Качают: 8
Скачать торрент
Скачать торрент
Описание торрента

СообщениеДобавлено: 15 фев 2014 


#77
Страна: СССР, Польша, Болгария
Производство: Студия Горького, Zespol Filmowy, Киностудия БОЯНА

Жанр: приключения, семейный
Год выпуска: 1979
Продолжительность: 01:25:53

Перевод: не требуется
Оригинальная аудиодорожка: русский
Cубтитры: нет

Режиссер: Вениамин Дорман

В ролях:
Влодзимеж Голачиньский, Дарья Михайлова, Леонид Броневой, Антони Юраш, Александр Михайлов, Ольга Остроумова, Михаил Глузский, Альгимантас Масюлис, Лучезар Стоянов, Игорь Васильев, Александр Вокач, Олев Эскола, Леонид Марков, Григорий Лямпе, Михаил Жигалов, Шавкат Газиев, Ю. Перацкий, Леон Немчик, Нартай Бегалин, Анджей Викретович...

Описание:
В центре сюжета картины путешествие в Южную Америку польского школьника Янека и его попутчицы, русской девочки Тани. Самолет, на котором летели ребята, оказался захвачен бандой наркоторговцев во главе с бывшим нацистским преступником…





Исходник: DVD9 R5
Тип релиза: DVDRip
Контейнер: AVI

Видео: 640x480 (4:3), 25 fps, XviD ~ 1074 kbps avg, 0.140 bit/pixel
Аудио: 48 kHz, MP3 2.0, 128 kbps

Раздача от:
Общее
Полное имя : Pohishhenie.Savoyi.1979.DVDRip-745_[Youtracker]_by_AVP Studio.avi
Формат : AVI
Формат/Информация : Audio Video Interleave
Размер файла : 744 Мбайт
Продолжительность : 1 ч. 25 м.
Общий поток : 1211 Кбит/сек
Программа кодирования : VirtualDubModRus 1.5.10.2 (build 2542/release)
Библиотека кодирования : VirtualDubMod build 2542/release

Видео
Идентификатор : 0
Формат : MPEG-4 Visual
Профиль формата : Advanced Simple@L5
Параметр BVOP формата : 1
Параметр QPel формата : Нет
Параметр GMC формата : Без точки перехода
Параметр матрицы формата : Выборочная
Идентификатор кодека : XVID
Идентификатор кодека/Подсказка : XviD
Продолжительность : 1 ч. 25 м.
Битрейт : 1074 Кбит/сек
Ширина : 640 пикселей
Высота : 480 пикселей
Соотношение сторон : 4:3
Частота кадров : 25,000 кадров/сек
Цветовое пространство : YUV
Субдискретизация насыщенности : 4:2:0
Битовая глубина : 8 бит
Тип развёртки : Прогрессивная
Метод сжатия : С потерями
Бит/(Пиксели*Кадры) : 0.140
Размер потока : 660 Мбайт (89%)
Библиотека кодирования : XviD 73

Аудио
Идентификатор : 1
Формат : MPEG Audio
Версия формата : Version 1
Профиль формата : Layer 3
Идентификатор кодека : 55
Идентификатор кодека/Подсказка : MP3
Продолжительность : 1 ч. 25 м.
Вид битрейта : Постоянный
Битрейт : 128 Кбит/сек
Каналы : 2 канала
Частота : 48,0 КГц
Метод сжатия : С потерями
Размер потока : 78,6 Мбайт (11%)
Выравнивание : Соединение по промежуткам
Продолжительность промежутка : 40 мс. (1,00 видеокадр)
Время предзагрузки промежутка : 504 мс.
Библиотека кодирования : LAME3.99r
Настройки программы : -m s -V 4 -q 2 -lowpass 17 -b 128





   Похожие торренты   Торрент   Размер 
В этой теме нет новых непрочитанных сообщений. Похищение «Савойи» (1979) DVDRip-AVC от New-Team

18 | 13

1.46 ГБ

В этой теме нет новых непрочитанных сообщений. Похищение «Савойи» (1979) DVDRip от New-Team

93 | 24

1.46 ГБ

В этой теме нет новых непрочитанных сообщений. Похищение «Савойи» (1979) DVDRip-AVC от Киномагия

1 | 2

1.42 ГБ

В этой теме нет новых непрочитанных сообщений. Похищение «Савойи» (1979) DVD9

1 | 11

6.5 ГБ

В этой теме нет новых непрочитанных сообщений. Похищение "Савойи" (1979) DVDRip от Doctor No.

10 | 4

1.17 ГБ

В этой теме нет новых непрочитанных сообщений. Похищение бабули Квон / Миссия выполнима: Похищение бабули / Mission Possible: Kidnapping Granny K (2007) DVDRip | L1

3 | 1

1.46 ГБ

В этой теме нет новых непрочитанных сообщений. Похищение Фредди Хайнекена / Kidnapping Mr. Heineken (2015) BDRip-AVC от New-Team | D | Лицензия

1101 | 204

1.45 ГБ




Вы не можете начинать темы
Вы не можете отвечать на сообщения
Вы не можете редактировать свои сообщения
Вы не можете удалять свои сообщения
Вы не можете добавлять вложения

Перейти:  
Для Мосгорсуда, Роскомнадзора и рекламодателей: mosgorsud-torrent[собачка]yandex.ru
 Вход
ppkBB3cker v.2 © 2008-2014 @ PPK
[ Time : 2.160s | 14 Queries | GZIP : On ]

Торрент трекер RUTOR.IN, Не можете зайти на rutor.org? Какой новый адрес рутор? Какое зеркало рутор? Не работает rutor.org и зеркала? Тогда наш торрент специально для вас. Rutor.in неофициальное зеркало rutor. В случае если у Вас заблокирован rutor или вдруг Вы не можете на него зайти, то Вы без труда сможете скачать бесплатно и без рекламы последние новинки кино, игр, сериалов и прочего у нас, на Rutor.in. Не нужно использовать прокси, чтобы зайти на рутор, достаточно воспользоваться нашим ресурсом. Все новые фильмы, игры, сериалы, книги и музыка за 2013 и 2014 годы через торрент бесплатно. Скачивайте фильмы в хорошем качестве, игры для пк, xbox, playstation без регистрации. У нас вы найдете новые Зарубежные сериалы и Русские сериалы 2013, 2014, 2015 годов. Оставайтесь с нами, качайте любимые фильмы, игры, сериалы, книги и музыку.