img image001 image001 image001 image001 image001 image001 image001 image001 image001 image001 image001 image001 image001 image001 image001

Planets Sun Sun Sun
Статистика раздачи
Автор: PriZraK | Размер: 745.13 МБ | Добавлен: 15 фев 2014
Раздают: 33    Качают: 12
Скачать торрент
Скачать торрент
Описание торрента

СообщениеДобавлено: 15 фев 2014 


#77
Страна: СССР
Производство: Студия Горького
Жанр: криминал, военный
Год выпуска: 1979
Продолжительность: 01:09:31

Перевод: не требуется
Оригинальная аудиодорожка: русский
Cубтитры: нет

Режиссер: Валерий Михайловский

В ролях:
Леонид Неведомский, Александр Соловьев, Алексей Эйбоженко, Геннадий Крынкин, Алексей Михайлов, Георгий Штиль, Николай Скоробогатов, Николай Буров, Юрий Назаров, Александр Хочинский, Виктор Проскурин, Владимир Кенигсон, Елена Шанина...

Описание:
В июле 1941 года наступающими немецкими войсками была перехвачена машина, перевозившая ювелирные изделия. Руководство германской разведки решило внедрить своего агента по документам убитого инкассатора…
В августе 1942 года была убита семья ювелира Ивановского. Группа сотрудников МУРа во главе с опытным чекистом Даниловым начала свою операцию по обезвреживанию опасных преступников, которые были подготовлены в школах СД и Абвера для выполнения диверсионной работы. Важную роль в поимке вражеских агентов отводилась бывшему вору Кострову…





Исходник: DVD5 R5
Тип релиза: DVDRip
Контейнер: AVI

Видео: 688x368 (1,870:1), 25 fps, XviD ~ 1297 kbps avg, 0.205 bit/pixel
Аудио: 48 kHz, Dolby AC3 2.0, 192 kbps

Раздача от:
Общее
Полное имя : Po.dannym.ugolovnogo.rozyska.1979.DVDRip_[Youtracker]_by_AVP Studio.avi
Формат : AVI
Формат/Информация : Audio Video Interleave
Размер файла : 745 Мбайт
Продолжительность : 1 ч. 9 м.
Общий поток : 1499 Кбит/сек
Программа кодирования : VirtualDubModRus 1.5.10.2 (build 2542/release)
Библиотека кодирования : VirtualDubMod build 2542/release

Видео
Идентификатор : 0
Формат : MPEG-4 Visual
Профиль формата : Advanced Simple@L5
Параметр BVOP формата : 1
Параметр QPel формата : Нет
Параметр GMC формата : Без точки перехода
Параметр матрицы формата : Выборочная
Идентификатор кодека : XVID
Идентификатор кодека/Подсказка : XviD
Продолжительность : 1 ч. 9 м.
Битрейт : 1297 Кбит/сек
Ширина : 688 пикселей
Высота : 368 пикселей
Соотношение сторон : 1,870
Частота кадров : 25,000 кадров/сек
Цветовое пространство : YUV
Субдискретизация насыщенности : 4:2:0
Битовая глубина : 8 бит
Тип развёртки : Прогрессивная
Метод сжатия : С потерями
Бит/(Пиксели*Кадры) : 0.205
Размер потока : 645 Мбайт (87%)
Библиотека кодирования : XviD 73

Аудио
Идентификатор : 1
Формат : AC-3
Формат/Информация : Audio Coding 3
Расширение режима : CM (complete main)
Идентификатор кодека : 2000
Продолжительность : 1 ч. 9 м.
Вид битрейта : Постоянный
Битрейт : 192 Кбит/сек
Каналы : 2 канала
Расположение каналов : Front: L R
Частота : 48,0 КГц
Битовая глубина : 16 бит
Метод сжатия : С потерями
Размер потока : 95,5 Мбайт (13%)
Выравнивание : Разделение по промежуткам
Продолжительность промежутка : 40 мс. (1,00 видеокадр)
Время предзагрузки промежутка : 500 мс





   Похожие торренты   Торрент   Размер 
В этой теме нет новых непрочитанных сообщений. По данным уголовного розыска... (1979) DVDRip-AVC от New-Team

36 | 4

744.22 МБ

В этой теме нет новых непрочитанных сообщений. По данным уголовного розыска (1979) DVDRip-AVC

7 | 3

1.36 ГБ

В этой теме нет новых непрочитанных сообщений. По данным уголовного розыска... (1979) DVDRip-AVC

115 | 19

1.43 ГБ

В этой теме нет новых непрочитанных сообщений. Из жизни начальника уголовного розыска (1983) DVDRip от New-Team

332 | 6

1.46 ГБ

В этой теме нет новых непрочитанных сообщений. Из жизни начальника уголовного розыска (1983) DVDRip от New-Team

5 | 9

744.09 МБ

В этой теме нет новых непрочитанных сообщений. Из жизни начальника уголовного розыска (1983) DVDRip-AVC от New-Team

7 | 6

1.46 ГБ

В этой теме нет новых непрочитанных сообщений. Будни уголовного розыска (1973) DVDRip от Киномагия

46 | 20

1.37 ГБ




Вы не можете начинать темы
Вы не можете отвечать на сообщения
Вы не можете редактировать свои сообщения
Вы не можете удалять свои сообщения
Вы не можете добавлять вложения

Перейти:  
Для Мосгорсуда, Роскомнадзора и рекламодателей: mosgorsud-torrent[собачка]yandex.ru
 Вход
ppkBB3cker v.2 © 2008-2014 @ PPK
[ Time : 0.036s | 15 Queries | GZIP : Off ]

Торрент трекер RUTOR.IN, Не можете зайти на rutor.org? Какой новый адрес рутор? Какое зеркало рутор? Не работает rutor.org и зеркала? Тогда наш торрент специально для вас. Rutor.in неофициальное зеркало rutor. В случае если у Вас заблокирован rutor или вдруг Вы не можете на него зайти, то Вы без труда сможете скачать бесплатно и без рекламы последние новинки кино, игр, сериалов и прочего у нас, на Rutor.in. Не нужно использовать прокси, чтобы зайти на рутор, достаточно воспользоваться нашим ресурсом. Все новые фильмы, игры, сериалы, книги и музыка за 2013 и 2014 годы через торрент бесплатно. Скачивайте фильмы в хорошем качестве, игры для пк, xbox, playstation без регистрации. У нас вы найдете новые Зарубежные сериалы и Русские сериалы 2013, 2014, 2015 годов. Оставайтесь с нами, качайте любимые фильмы, игры, сериалы, книги и музыку.